<?xml version="1.0" standalone="no"?>
<!DOCTYPE svg PUBLIC "-//W3C//DTD SVG 1.1//EN" "http://www.w3.org/Graphics/SVG/1.1/DTD/svg11.dtd" >
<svg xmlns="http://www.w3.org/2000/svg" xmlns:xlink="http://www.w3.org/1999/xlink" version="1.1">
<metadata>
Created by FontForge 20200427 at Fri Jan  1 08:00:00 1904
 By www
Copyright (c) 1991 Digital Typeface Corp.
</metadata>
<defs>
<font id="GoudyHandtooled" horiz-adv-x="2114" >
  <font-face 
    font-family="Goudy Handtooled"
    font-weight="400"
    font-stretch="normal"
    units-per-em="4096"
    panose-1="4 2 114 0 0 0 0 0 0 0"
    ascent="3276"
    descent="-820"
    x-height="1745"
    cap-height="2757"
    bbox="-549 -1016 4157 3559"
    underline-thickness="56"
    underline-position="-146"
    unicode-range="U+000D-FB02"
  />
<missing-glyph horiz-adv-x="3072" 
d="M512 0v2560h2048v-2560h-2048zM2494 66v2428h-1916v-2428h1916z" />
    <glyph glyph-name=".notdef" unicode="&#xf8ff;" horiz-adv-x="3072" 
d="M512 0v2560h2048v-2560h-2048zM2494 66v2428h-1916v-2428h1916z" />
    <glyph glyph-name=".notdef" unicode="&#xe01e;" horiz-adv-x="3072" 
d="M512 0v2560h2048v-2560h-2048zM2494 66v2428h-1916v-2428h1916z" />
    <glyph glyph-name=".notdef" unicode="&#x25ca;" horiz-adv-x="3072" 
d="M512 0v2560h2048v-2560h-2048zM2494 66v2428h-1916v-2428h1916z" />
    <glyph glyph-name=".notdef" unicode="&#x394;" horiz-adv-x="3072" 
d="M512 0v2560h2048v-2560h-2048zM2494 66v2428h-1916v-2428h1916z" />
    <glyph glyph-name=".notdef" unicode="&#x2248;" horiz-adv-x="3072" 
d="M512 0v2560h2048v-2560h-2048zM2494 66v2428h-1916v-2428h1916z" />
    <glyph glyph-name=".notdef" unicode="&#x221a;" horiz-adv-x="3072" 
d="M512 0v2560h2048v-2560h-2048zM2494 66v2428h-1916v-2428h1916z" />
    <glyph glyph-name=".notdef" unicode="&#x3a9;" horiz-adv-x="3072" 
d="M512 0v2560h2048v-2560h-2048zM2494 66v2428h-1916v-2428h1916z" />
    <glyph glyph-name=".notdef" unicode="&#x222b;" horiz-adv-x="3072" 
d="M512 0v2560h2048v-2560h-2048zM2494 66v2428h-1916v-2428h1916z" />
    <glyph glyph-name=".notdef" unicode="&#x3c0;" horiz-adv-x="3072" 
d="M512 0v2560h2048v-2560h-2048zM2494 66v2428h-1916v-2428h1916z" />
    <glyph glyph-name=".notdef" unicode="&#x220f;" horiz-adv-x="3072" 
d="M512 0v2560h2048v-2560h-2048zM2494 66v2428h-1916v-2428h1916z" />
    <glyph glyph-name=".notdef" unicode="&#x2211;" horiz-adv-x="3072" 
d="M512 0v2560h2048v-2560h-2048zM2494 66v2428h-1916v-2428h1916z" />
    <glyph glyph-name=".notdef" unicode="&#x2202;" horiz-adv-x="3072" 
d="M512 0v2560h2048v-2560h-2048zM2494 66v2428h-1916v-2428h1916z" />
    <glyph glyph-name=".notdef" unicode="&#x2265;" horiz-adv-x="3072" 
d="M512 0v2560h2048v-2560h-2048zM2494 66v2428h-1916v-2428h1916z" />
    <glyph glyph-name=".notdef" unicode="&#x2264;" horiz-adv-x="3072" 
d="M512 0v2560h2048v-2560h-2048zM2494 66v2428h-1916v-2428h1916z" />
    <glyph glyph-name=".notdef" unicode="&#x221e;" horiz-adv-x="3072" 
d="M512 0v2560h2048v-2560h-2048zM2494 66v2428h-1916v-2428h1916z" />
    <glyph glyph-name=".notdef" unicode="&#x2260;" horiz-adv-x="3072" 
d="M512 0v2560h2048v-2560h-2048zM2494 66v2428h-1916v-2428h1916z" />
    <glyph glyph-name=".notdef" horiz-adv-x="3072" 
d="M512 0v2560h2048v-2560h-2048zM2494 66v2428h-1916v-2428h1916z" />
    <glyph glyph-name=".notdef" horiz-adv-x="3072" 
d="M512 0v2560h2048v-2560h-2048zM2494 66v2428h-1916v-2428h1916z" />
    <glyph glyph-name=".notdef" horiz-adv-x="3072" 
d="M512 0v2560h2048v-2560h-2048zM2494 66v2428h-1916v-2428h1916z" />
    <glyph glyph-name=".notdef" horiz-adv-x="3072" 
d="M512 0v2560h2048v-2560h-2048zM2494 66v2428h-1916v-2428h1916z" />
    <glyph glyph-name=".notdef" horiz-adv-x="3072" 
d="M512 0v2560h2048v-2560h-2048zM2494 66v2428h-1916v-2428h1916z" />
    <glyph glyph-name=".notdef" horiz-adv-x="3072" 
d="M512 0v2560h2048v-2560h-2048zM2494 66v2428h-1916v-2428h1916z" />
    <glyph glyph-name=".notdef" horiz-adv-x="3072" 
d="M512 0v2560h2048v-2560h-2048zM2494 66v2428h-1916v-2428h1916z" />
    <glyph glyph-name=".notdef" horiz-adv-x="3072" 
d="M512 0v2560h2048v-2560h-2048zM2494 66v2428h-1916v-2428h1916z" />
    <glyph glyph-name=".notdef" horiz-adv-x="3072" 
d="M512 0v2560h2048v-2560h-2048zM2494 66v2428h-1916v-2428h1916z" />
    <glyph glyph-name=".notdef" horiz-adv-x="3072" 
d="M512 0v2560h2048v-2560h-2048zM2494 66v2428h-1916v-2428h1916z" />
    <glyph glyph-name=".notdef" horiz-adv-x="3072" 
d="M512 0v2560h2048v-2560h-2048zM2494 66v2428h-1916v-2428h1916z" />
    <glyph glyph-name=".notdef" horiz-adv-x="3072" 
d="M512 0v2560h2048v-2560h-2048zM2494 66v2428h-1916v-2428h1916z" />
    <glyph glyph-name=".notdef" horiz-adv-x="3072" 
d="M512 0v2560h2048v-2560h-2048zM2494 66v2428h-1916v-2428h1916z" />
    <glyph glyph-name=".notdef" horiz-adv-x="3072" 
d="M512 0v2560h2048v-2560h-2048zM2494 66v2428h-1916v-2428h1916z" />
    <glyph glyph-name=".notdef" horiz-adv-x="3072" 
d="M512 0v2560h2048v-2560h-2048zM2494 66v2428h-1916v-2428h1916z" />
    <glyph glyph-name=".notdef" horiz-adv-x="3072" 
d="M512 0v2560h2048v-2560h-2048zM2494 66v2428h-1916v-2428h1916z" />
    <glyph glyph-name=".notdef" horiz-adv-x="3072" 
d="M512 0v2560h2048v-2560h-2048zM2494 66v2428h-1916v-2428h1916z" />
    <glyph glyph-name=".notdef" horiz-adv-x="3072" 
d="M512 0v2560h2048v-2560h-2048zM2494 66v2428h-1916v-2428h1916z" />
    <glyph glyph-name=".notdef" horiz-adv-x="3072" 
d="M512 0v2560h2048v-2560h-2048zM2494 66v2428h-1916v-2428h1916z" />
    <glyph glyph-name=".notdef" horiz-adv-x="3072" 
d="M512 0v2560h2048v-2560h-2048zM2494 66v2428h-1916v-2428h1916z" />
    <glyph glyph-name=".notdef" unicode="&#xa;" horiz-adv-x="3072" 
d="M512 0v2560h2048v-2560h-2048zM2494 66v2428h-1916v-2428h1916z" />
    <glyph glyph-name=".notdef" horiz-adv-x="3072" 
d="M512 0v2560h2048v-2560h-2048zM2494 66v2428h-1916v-2428h1916z" />
    <glyph glyph-name=".notdef" horiz-adv-x="3072" 
d="M512 0v2560h2048v-2560h-2048zM2494 66v2428h-1916v-2428h1916z" />
    <glyph glyph-name=".notdef" horiz-adv-x="3072" 
d="M512 0v2560h2048v-2560h-2048zM2494 66v2428h-1916v-2428h1916z" />
    <glyph glyph-name=".notdef" horiz-adv-x="3072" 
d="M512 0v2560h2048v-2560h-2048zM2494 66v2428h-1916v-2428h1916z" />
    <glyph glyph-name=".notdef" horiz-adv-x="3072" 
d="M512 0v2560h2048v-2560h-2048zM2494 66v2428h-1916v-2428h1916z" />
    <glyph glyph-name=".notdef" horiz-adv-x="3072" 
d="M512 0v2560h2048v-2560h-2048zM2494 66v2428h-1916v-2428h1916z" />
    <glyph glyph-name=".notdef" horiz-adv-x="3072" 
d="M512 0v2560h2048v-2560h-2048zM2494 66v2428h-1916v-2428h1916z" />
    <glyph glyph-name=".null" horiz-adv-x="0" 
 />
    <glyph glyph-name=".null" horiz-adv-x="0" 
 />
    <glyph glyph-name=".null" horiz-adv-x="0" 
 />
    <glyph glyph-name="nonmarkingreturn" unicode="&#xd;" horiz-adv-x="0" 
 />
    <glyph glyph-name="nonmarkingreturn" unicode="&#x9;" horiz-adv-x="0" 
 />
    <glyph glyph-name="space" unicode=" " horiz-adv-x="1057" 
 />
    <glyph glyph-name="exclam" unicode="!" horiz-adv-x="1147" 
d="M893 2601l-242 -1548q-8 -70 -49 -70q-44 0 -53 74l-189 1507q-4 25 -4 66q0 114 344 114q116 0 158.5 -12.5t42.5 -69.5q0 -21 -8 -61zM696 643l238 -242q37 -37 37 -73q0 -27 -33 -62l-258 -258q-20 -20 -62 -20q-20 0 -57 37l-246 245q-24 31 -24 66q0 30 33 61
l245 242q35 41 62 41q19 0 65 -37zM573 1294l-61 1254q0 82 -45 82q-49 0 -49 -45q0 -33 4 -50zM471 369l152 151q29 29 32 45q0 25 -28 25q-12 0 -41 -29l-180 -180q-37 -34 -37 -45q0 -13 24 -49l180 -176q33 -33 45 -33q29 0 29 24q0 28 -20 41l-156 160q-20 20 -20 33
q0 10 20 33z" />
    <glyph glyph-name="quotedbl" unicode="&#x22;" horiz-adv-x="1278" 
d="M565 2470l-78 -541q-7 -65 -57 -65h-139q-58 0 -58 65l-81 565q0 34 13.5 54t31.5 20h327q41 0 41 -98zM1122 2470l-78 -541q-7 -65 -57 -65h-139q-57 0 -57 65l-82 565q0 34 13.5 54t31.5 20h327q41 0 41 -98zM344 1974l-74 508q-6 29 -28 29q-33 0 -33 -37l78 -532
q0 -25 32 -25q25 0 25 57zM901 1974l-74 508q-6 29 -28 29q-33 0 -33 -37l78 -532q0 -25 33 -25q24 0 24 57z" />
    <glyph glyph-name="numbersign" unicode="#" 
d="M831 1794h599l102 700q10 74 57 74h127q55 0 68.5 -30.5t13.5 -92.5l-94 -651h238q81 0 81 -45l-12 -82q-6 -74 -90 -74h-246l-82 -594h279q41 0 41 -41l-12 -81q-7 -74 -91 -74h-245l-95 -688q-10 -60 -21.5 -87.5t-51.5 -27.5h-119q-46 0 -64 25t-18 90l94 688h-598
l-98 -688q-9 -115 -74 -115h-114q-87 0 -87 115l99 688h-275q-45 0 -45 33l13 94q10 69 94 69h241l82 594h-274q-45 0 -45 37l12 90q10 74 94 74h242l98 692q8 82 58 82h131q54 0 66 -28.5t12 -94.5zM803 1593l-82 -594h598l86 594h-602zM483 893l-106 -754q0 -65 24 -65
q33 0 50 98l311 2224q2 11 4 32t4 30q0 32 -29 32q-45 0 -45 -69l-94 -676h-287q-61 0 -61 -86q0 -11 3 -24.5t5 -20.5q0 17 15.5 43t66.5 26h250l-102 -729h-287q-62 0 -62 -90q0 -7 3.5 -20.5t5.5 -20.5q0 18 13.5 44t63.5 26h254zM1356 885l-107 -746q0 -65 29 -65
q19 0 27.5 16t11.5 32.5t6 49.5l311 2224q8 42 8 62q0 32 -24 32q-45 0 -45 -61l-98 -684h-541q-98 0 -98 -37q0 -29 57 -29h573l-102 -725h-541q-102 0 -102 -36q0 -33 61 -33h574zM1872 1745h-70q-98 0 -98 -37q0 -29 57 -29h131q70 0 70 33t-90 33zM1761 954h-69
q-103 0 -103 -32q0 -37 62 -37h131q69 0 69 37q0 32 -90 32z" />
    <glyph glyph-name="dollar" unicode="$" 
d="M1118 2400v-815q375 -109 581 -283.5t206 -519.5q0 -205 -92 -385t-261 -291q-159 -109 -434 -147v-442q0 -103 -69 -103q-66 0 -66 107v438q-368 25 -655 201q-115 60 -115 147q0 7 2.5 23.5t5.5 29.5t4 25l37 201q27 135 33 184q11 90 61 90q45 -4 45 -106
q0 -168 79 -313.5t213 -240t290 -118.5v1053l-61 16q-245 85 -340 139q-139 78 -219 219t-80 301q0 189 93 353t255 254q170 94 352 94v356q0 82 74 82q61 0 61 -90v-344q321 -34 553 -193q86 -59 86 -118q0 -16 -8 -50l-37 -143q-9 -35 -19.5 -113t-23 -111.5t-43.5 -33.5
q-49 0 -49 102q0 205 -130.5 357t-328.5 188zM983 2408q-181 0 -297.5 -104.5t-116.5 -292.5q0 -169 111.5 -256.5t302.5 -132.5v786zM1118 82q148 17 258.5 84t170 179.5t59.5 264.5q0 207 -130.5 313.5t-357.5 170.5v-1012zM1380 2351q130 -123 197 -258q8 -14 14.5 -26
t10.5 -19v61q0 89 -66.5 158t-155.5 84zM471 2220q-139 -151 -139 -410q0 -250 151 -381.5t426 -211.5q257 -74 389 -124t242.5 -163t110.5 -299q0 -151 -86 -344q139 128 139 352q0 158 -64.5 265t-171 174t-216.5 105.5t-306 94.5q-159 47 -248.5 84t-160.5 108
q-139 139 -152 349q0 195 86 401zM332 631q-28 -84 -41 -180l-21 -91q0 -6 -2 -20t-2 -21q0 -79 242 -192q-9 10 -19.5 21.5t-21.5 19.5l-45 37q-63 55 -78.5 110t-15.5 164v99q0 32 4 53z" />
    <glyph glyph-name="percent" unicode="%" horiz-adv-x="2662" 
d="M2540 803q0 -336 -173 -574q-178 -245 -417 -245q-168 0 -293 112.5t-190.5 280.5t-65.5 332q0 378 164 610q71 98 182.5 167.5t222.5 69.5q244 0 410 -213q160 -203 160 -540zM1262 2028q0 -335 -172 -574q-180 -246 -418 -246q-168 0 -292.5 112t-190.5 281t-66 332
q0 377 164 611q72 97 184 167t221 70q243 0 410 -213q160 -203 160 -540zM1995 2699l-1131 -2588q-21 -53 -97 -88t-103 -35q-33 0 -33 32q0 5 4 17t4 16l1171 2663q29 65 91 65h53q53 0 53 -33q0 -10 -5 -25t-7 -24zM1569 1233q-119 -192 -119 -467q0 -350 184 -573
q117 -142 320 -148q-185 78 -275 193q-168 204 -168 524q0 226 58 471zM1839 1401q-116 0 -172.5 -114.5t-56.5 -246.5q0 -157 53 -365.5t163 -359.5t271 -151q135 0 190.5 116.5t55.5 264.5q0 151 -57.5 354t-171.5 352.5t-275 149.5zM561 2626q-116 0 -172.5 -114.5
t-56.5 -246.5q0 -157 53 -365.5t163 -359.5t271 -151q135 0 190.5 116.5t55.5 263.5q0 151 -57.5 354.5t-171.5 353t-275 149.5zM672 2658q129 -68 199 -146t128 -218q119 -279 119 -672q41 128 41 238q0 168 -53 340t-148 299q-103 140 -286 159zM291 2458
q-119 -194 -119 -467q0 -349 184 -574q118 -141 320 -147q-185 78 -275 192q-168 205 -168 525q0 226 58 471zM1950 1434q128 -67 198.5 -146t128.5 -219q119 -282 119 -672q41 128 41 238q0 168 -52.5 339.5t-148.5 299.5q-102 139 -286 160z" />
    <glyph glyph-name="ampersand" unicode="&#x26;" horiz-adv-x="3690" 
d="M2585 672q127 179 127 426q0 332 -340 332q-115 0 -115 69q0 62 102 62q28 0 194 -12.5t249 -12.5q27 0 113 4t112 4q70 0 70 -49q0 -71 -50 -82l-49 -8q-36 -9 -45 -74l-16 -110q-33 -221 -119 -394l-65 -131q-33 -54 -33 -102q0 -28 20 -57t51.5 -55t78 -58t55.5 -39
q259 -180 442 -180q85 0 176 22.5t102 22.5q45 0 45 -45q0 -54 -106 -103q-250 -131 -528 -131q-161 0 -292 48t-245.5 115t-130.5 67q-19 0 -171 -62.5t-334 -108.5t-408 -46q-480 0 -787 229q-166 127 -263 316.5t-97 396.5q0 192 78 372t221 295q78 66 258 156
q28 9 28 29q0 9 -21.5 56.5t-38.5 111.5t-17 155q0 157 75 308t223 247.5t353 96.5q109 0 218.5 -27t219 -66t123.5 -39q16 0 54 22.5t48 22.5q62 0 62 -114q-3 -28 -7.5 -83.5t-4.5 -101.5q0 -96 24.5 -215.5t24.5 -181.5q0 -61 -54 -61q-21 0 -41.5 17t-27.5 40l-37 115
q-41 134 -130.5 252.5t-214 191t-265.5 72.5q-114 0 -196.5 -83.5t-82.5 -186.5q0 -338 602 -979q146 -156 260 -266.5t250 -220t273 -189.5zM950 1651q-30 0 -94 -41q-180 -119 -180 -295q0 -354 340 -725q165 -181 379.5 -285t447.5 -104q98 0 227.5 32t129.5 103
q0 37 -74 90q-352 291 -610 561q-230 247 -323.5 356t-184.5 263q-24 45 -58 45zM1745 2597q207 -118 369 -397q-12 166 -108.5 272.5t-260.5 124.5zM2621 1446q100 -57 126 -168t26 -279q49 98 49 185q0 99 -35.5 180.5t-120.5 81.5h-45zM1085 2544q-180 -158 -180 -414
q0 -295 316 -692q414 -534 1101 -1082q416 -327 803 -327q30 0 94 8q-281 25 -507 147q-310 174 -742 557q-393 355 -688 725q-145 186 -232 346.5t-87 325.5q0 215 122 406zM537 1409q-140 -159 -140 -475q0 -255 148.5 -454.5t385 -309t486.5 -109.5q18 0 45 2t41 3
l-78 12q-337 56 -561 209q-118 77 -209.5 185t-145.5 249t-54 307q0 198 82 381z" />
    <glyph glyph-name="quoteright" unicode="&#x2019;" horiz-adv-x="1036" 
d="M221 2757l217 233q31 29 66 29q75 0 141 -68t106 -163.5t40 -166.5q0 -364 -332 -684q-147 -147 -217 -147q-19 0 -34 16t-15 33q0 24 36 62q217 191 217 360q0 104 -52.5 174t-155.5 158q-58 55 -58 78q0 35 41 86zM463 2146q69 91 69 176q0 168 -167 320q-29 27 -29 49
q0 5 24 41l123 131q29 27 29 45q0 29 -37 29q-1 0 -29 -25l-180 -192q-24 -26 -24 -49q0 -14 10 -27t26.5 -25t28.5 -22q154 -118 176 -270q0 -108 -20 -181z" />
    <glyph glyph-name="parenleft" unicode="(" horiz-adv-x="1237" 
d="M1028 -692q-82 0 -237 176q-215 216 -354.5 497t-206 592t-66.5 631q0 319 74 629.5t225.5 588.5t376.5 486q151 135 204 135q33 0 33 -37q0 -17 -94.5 -182.5t-110.5 -197.5q-85 -170 -151 -354.5t-105.5 -360.5t-59 -356.5t-19.5 -374.5q0 -651 213 -1205
q121 -308 249 -503q62 -97 62 -123q0 -17 -10.5 -29t-22.5 -12zM700 -315q-21 39 -56.5 104.5t-86.5 169.5q-99 203 -172 455q-106 372 -106 848q0 253 52 514t148 567q-88 -176 -131 -299q-135 -399 -135 -803q0 -700 279 -1257q72 -145 128.5 -213.5t79.5 -85.5z" />
    <glyph glyph-name="parenright" unicode=")" horiz-adv-x="1237" 
d="M242 3043q78 0 237 -176q215 -216 354.5 -497t206 -592t66.5 -631q0 -319 -74 -629.5t-225.5 -588.5t-376.5 -486q-151 -135 -205 -135q-28 0 -28 37q0 23 11 45.5t55.5 95t69.5 116.5t64 124q112 225 187 462t112 483t37 500q0 322 -53 624t-164 585q-113 299 -246 499
q-61 101 -61 123q0 41 33 41zM434 2675q78 -165 123 -279q93 -246 143 -463q82 -340 82 -848q0 -256 -52.5 -515t-147.5 -558q77 137 127 291q139 437 139 803q0 716 -230 1266q-77 172 -184 303z" />
    <glyph glyph-name="asterisk" unicode="*" 
d="M1114 2757q89 0 151 -58t62 -147q0 -47 -12 -93t-30.5 -91t-44.5 -97l-40 -80q-4 -10 -19.5 -46.5t-17.5 -59.5q0 -35 24.5 -60.5t61.5 -25.5q39 0 58 20t61 74q90 107 171 166t190 59q89 0 151 -67t62 -150q0 -109 -86.5 -161t-192.5 -52q-32 0 -163 14.5t-148 14.5
q-107 0 -107 -94q0 -30 21.5 -48t62.5 -35t47 -20q332 -130 332 -331q0 -73 -58 -143t-143 -70q-84 0 -137.5 43.5t-82 110.5t-44 150t-26.5 142q-13 65 -31 104t-68 39q-58 0 -73.5 -42.5t-20.5 -120.5q-12 -170 -75 -300.5t-204 -130.5q-78 0 -147.5 57.5t-69.5 151.5
q0 63 35 114.5t88 91.5t116 73.5t114 60.5q39 22 57.5 33t35.5 30t17 40q0 94 -90 94q-16 0 -143.5 -26.5t-159.5 -26.5q-99 0 -203 59t-104 170q0 101 66 159t139 58q54 0 105.5 -22.5t92 -53.5t82 -69.5t96.5 -91.5q12 -11 34 -31t43.5 -31.5t45.5 -11.5q23 0 50.5 24.5
t27.5 49.5q0 43 -57 131q-115 186 -115 315q0 95 59 166.5t154 71.5zM1020 2302q0 10 -2 29t-2 28q0 145 74 213q45 39 45 66q0 57 -54 57q-60 0 -91.5 -54.5t-31.5 -117.5q0 -89 62 -221zM1466 2118q101 45 172 45q50 0 102 -27t70 -27q50 0 50 50q0 41 -36 71.5t-87 30.5
q-126 0 -271 -143zM1430 1638q106 -123 106 -200q0 -12 -6 -51t-6 -44q0 -69 61 -69q70 5 70 106q0 136 -225 258zM958 1524q-58 -109 -112 -137t-120.5 -42t-66.5 -55q0 -65 82 -65q98 0 149.5 91.5t67.5 207.5zM709 1937q-126 28 -170 68.5t-74 94.5t-64 54q-49 0 -49 -65
q0 -73 69 -118.5t144 -45.5q69 0 144 12z" />
    <glyph glyph-name="plus" unicode="+" 
d="M1192 1343h623h24q49 0 49 -49v-127q0 -98 -78 -98h-618v-594q0 -74 -57 -74h-115q-102 0 -102 74v594h-623q-74 0 -74 57v115q0 102 74 102h623v594v29q0 45 49 45h127q98 0 98 -78v-590zM967 1237v-684v-45q0 -37 28 -37q29 0 29 57v1356q0 44 26.5 58.5t43.5 15.5
q-10 3 -30 7.5t-36 4.5q-61 0 -61 -49v-627h-652q-53 0 -53 -61q0 -16 4.5 -36t7.5 -30q0 18 14 44t60 26h619zM1782 1294h-512q-58 0 -58 -28q0 -29 41 -29h41h463h45q37 0 37 29q0 28 -57 28z" />
    <glyph glyph-name="comma" unicode="," horiz-adv-x="1036" 
d="M221 373l217 233q29 29 66 29q75 0 141 -68t106 -162.5t40 -166.5q0 -366 -332 -684q-148 -148 -217 -148q-19 0 -34 16t-15 33q0 26 77 101t126.5 147.5t49.5 177.5q0 151 -208 328q-58 55 -58 78q0 35 41 86zM463 -238q69 91 69 177q0 167 -167 319q-29 27 -29 49
q0 5 24 41l123 131q29 29 29 45q0 29 -37 29q-8 0 -16.5 -9.5t-12.5 -15.5l-180 -192q-24 -24 -24 -49q0 -14 10 -27t26.5 -25t28.5 -22q70 -54 125 -138.5t55 -152.5q0 -73 -24 -160z" />
    <glyph glyph-name="hyphen" unicode="-" horiz-adv-x="770" 
d="M57 1008l631 225q24 8 45 8q37 0 37 -53v-299q0 -66 -65 -86l-619 -221q-36 -9 -49 -9q-37 0 -37 70v262q0 83 57 103zM57 877v-164q0 -45 29 -45q25 0 25 28v152q0 43 49 57l495 176q58 21 58 49q0 21 -21 21q-15 0 -41 -8l-524 -189q-39 -14 -54.5 -28t-15.5 -49z" />
    <glyph glyph-name="period" unicode="." horiz-adv-x="1036" 
d="M586 643l237 -242q37 -35 37 -73q0 -29 -33 -62l-258 -258q-20 -20 -61 -20q-22 0 -57 37l-246 245q-25 31 -25 66q0 28 33 61l246 242q33 41 61 41q17 0 66 -37zM360 369l144 143q41 41 41 57q0 21 -25 21q-16 0 -53 -37l-172 -172q-37 -37 -37 -45q0 -16 25 -49
l180 -176q30 -33 45 -33q29 0 29 24q0 27 -21 41l-156 160q-20 20 -20 33q0 10 20 33z" />
    <glyph glyph-name="slash" unicode="/" horiz-adv-x="1663" 
d="M1593 2830l-1396 -3207q-39 -82 -111 -82q-82 0 -82 41q0 21 8 37l1418 3211q29 70 131 70q49 0 49 -29q0 -5 -7 -18.5t-10 -22.5z" />
    <glyph glyph-name="zero" unicode="0" 
d="M1962 1335q0 -555 -270 -954q-289 -410 -664 -410q-203 0 -378 123.5t-290 315.5q-204 363 -204 766q0 304 58.5 554t207.5 465q112 165 285 279.5t354 114.5q379 0 647 -348q254 -341 254 -906zM831 2372q-198 0 -289 -201t-91 -430q0 -250 55.5 -502.5t157.5 -480.5
q100 -219 253 -374t353 -155q94 0 181 56.5t138 144.5q99 165 99 471q0 243 -72 518.5t-191 501.5q-237 451 -594 451zM995 2404q166 -67 281.5 -189t206.5 -302q250 -477 250 -1077q0 -20 -1.5 -49.5t-2.5 -45.5q10 36 25 120.5t15 187.5q0 165 -53 398.5t-152.5 452
t-245 361.5t-323.5 143zM365 2007q-168 -303 -168 -758q0 -578 307 -954q218 -270 536 -270q-322 105 -491 315q-291 361 -291 905q0 307 57 570q9 45 50 192z" />
    <glyph glyph-name="one" unicode="1" 
d="M1311 1999v-1475q0 -216 73 -317t275 -101q94 0 94 -69q0 -49 -74 -49q7 0 -71 7t-200.5 12t-289.5 5q-128 0 -324 -12t-192 -12q-53 0 -53 49q0 69 119 69q258 0 258 304v1499q0 245 -197 245q-51 0 -103 -24.5t-57 -24.5q-61 0 -61 54q0 80 180 118l168 37
q93 21 164.5 68.5t156.5 118.5t109 71q49 0 49 -65q0 17 -12 -153t-12 -355zM844 2187q80 -46 105.5 -122.5t25.5 -192.5v-1413q0 -211 -94 -328q99 20 127 104.5t28 215.5v1380q0 162 -33 257.5t-159 98.5z" />
    <glyph glyph-name="two" unicode="2" 
d="M696 434q0 -38 164.5 -60t298.5 -22q271 0 422 82q56 30 93.5 67.5t74 86.5t57.5 70.5t45 21.5q41 0 41 -37q0 -25 -16 -65l-188 -431q-53 -112 -78.5 -135.5t-81.5 -23.5q-49 2 -175 5.5t-278.5 8t-269.5 7.5t-191 3q-78 0 -211 -8l-133 -8q-49 0 -49 49q0 16 41 70
q108 115 287 352q137 176 255 351t224 358q229 380 229 679q0 116 -51 205.5t-143 139t-207 49.5q-150 0 -247 -55.5t-183.5 -137.5t-114.5 -82q-15 0 -30 15t-15 30q0 82 176 258q282 263 648 263q156 0 289 -68.5t210.5 -193.5t77.5 -283q0 -278 -180 -553
q-117 -177 -340 -447l-262 -323l-144 -172q-45 -49 -45 -66zM680 2269q31 7 87 18t101 11q213 0 324 -134t111 -354q0 -154 -56 -295.5t-166 -347.5l-24 -49q78 76 194.5 261.5t116.5 422.5q0 264 -127 402q-126 143 -319 143q-89 0 -152.5 -29t-89.5 -49zM1610 373
q-37 -18 -149.5 -46t-289.5 -28q-137 0 -236 13t-177 30.5t-99 17.5q-32 0 -32 -24q0 -53 242 -78t364 -25q202 0 283 52.5t94 87.5z" />
    <glyph glyph-name="three" unicode="3" 
d="M1196 1589q230 -14 360 -102q113 -74 171.5 -201.5t58.5 -273.5q0 -472 -303 -758q-297 -283 -701 -283q-147 0 -290.5 56.5t-258.5 160.5q-69 63 -69 119q0 22 15.5 40t37.5 18q33 0 86 -46q191 -196 438 -196q274 0 484 254q155 193 155 450q0 240 -159 381
q-105 86 -234 86q-21 0 -69 -8q-27 -6 -73.5 -15t-70.5 -9q-69 0 -69 61q0 44 86 86q413 193 413 553q0 180 -104 297t-281 117q-184 0 -340 -156q-20 -22 -44.5 -50t-50 -48.5t-48.5 -20.5q-49 0 -49 53q0 79 101.5 171t209.5 153q227 131 434 131q136 0 259 -53.5
t198.5 -157t75.5 -244.5q0 -294 -369 -565zM819 2437q209 -30 307 -119q131 -124 131 -360q-3 -43 -19 -98.5t-26 -85.5q26 24 64.5 88t38.5 161q0 94 -48 192.5t-143 164t-231 65.5q-24 0 -74 -8zM1028 1335q124 -10 217 -82.5t143 -183.5t50 -233q0 -151 -43 -265
t-118.5 -202.5t-203.5 -200.5q201 98 313.5 267.5t112.5 387.5q0 227 -115 381q-109 144 -270 144q-60 0 -86 -13z" />
    <glyph glyph-name="four" unicode="4" 
d="M1561 999q18 -2 48 -5t38 -3q104 0 141 33t63 88t58 55q53 0 53 -77l-12 -99l-21 -172q-14 -135 -71 -172t-203 -37q-60 0 -77 -11t-17 -67v-647q0 -79 -107 -94l-237 -41q-9 0 -27 -4t-27 -4q-37 0 -37 29q0 -28 16.5 178t16.5 411q0 86 -4 267h-950q-115 0 -115 82
t266 454l394 553q112 164 417 551t357 387q37 0 37 -164v-282v-1209zM528 967h557q82 0 82 49v897q0 57 -28 57q-30 0 -144 -164l-360 -483q-180 -238 -180 -307q0 -49 73 -49zM1221 913h-779q-82 0 -82 -36q0 -29 41 -29h820v-447q0 -131 -8.5 -340t-8.5 -204q0 -41 33 -41
q41 0 41 131v2113q0 33 -29 33q-28 0 -28 -78v-1102zM1794 963q-53 -29 -176 -29q-53 0 -53 -33q0 -29 77 -29l62 5q67 0 90 86z" />
    <glyph glyph-name="five" unicode="5" 
d="M676 2515h823q102 0 205 119q33 41 57 41q49 0 49 -54q-5 -20 -37.5 -121.5t-39.5 -123.5q-30 -86 -45 -148q-25 -110 -99 -110l-246 8t-344 8q-196 0 -245 -25q-62 -37 -86.5 -160.5t-24.5 -232.5q0 -60 16 -89.5t66 -29.5q5 0 83 12.5t183 12.5q387 0 597 -191.5
t210 -525.5q0 -200 -80.5 -374t-221 -298.5t-322.5 -193t-379 -68.5q-309 0 -545 135q-78 40 -78 78q0 70 61 70q19 0 97.5 -40.5t170 -69.5t216.5 -29q303 0 512 196q176 170 176 443q0 142 -72 255.5t-193 178.5t-259 65q-94 0 -212 -14t-120 -14q-66 0 -86.5 40.5
t-20.5 127.5l58 221q72 299 102 794q9 107 74 107zM1610 2482q-79 -28 -135 -28h-721q-86 0 -86 -29q0 -41 69 -41h688q73 0 115.5 19.5t69.5 78.5zM549 1286q126 25 266 25q295 0 455 -140q184 -164 184 -409q0 -175 -68 -305t-210 -256q163 55 251.5 215.5t88.5 345.5
q0 188 -90 323t-247.5 205t-359.5 70q-157 -6 -270 -74z" />
    <glyph glyph-name="six" unicode="6" 
d="M1946 930q0 -271 -104.5 -489t-305 -344t-471.5 -126q-433 0 -676 320q-113 155 -169 341.5t-56 379.5q0 245 77.5 481.5t224.5 439t345 348.5q286 207 627 299q188 50 286 50q74 0 74 -58t-86 -73q-570 -139 -860 -582q-52 -88 -112 -222.5t-60 -211.5q0 -45 33 -45
q21 0 69 32q268 189 512 189q192 0 341.5 -101.5t230 -270t80.5 -357.5zM1565 692q0 172 -64 341.5t-190 280.5t-299 111q-213 0 -323.5 -156t-110.5 -372q0 -165 69 -356t199.5 -323t304.5 -132q215 0 336 213q78 152 78 393zM1241 2462q-335 -92 -651 -447
q-182 -207 -283.5 -467t-101.5 -532q0 -202 64 -403t197.5 -350.5t328.5 -192.5q-265 165 -390.5 396.5t-125.5 549.5q0 530 360 971q206 240 602 475zM1233 1425q116 -68 168 -131q186 -203 209 -553q0 -292 -82 -475q147 134 147 484q-21 363 -229 577q-78 85 -213 98z
" />
    <glyph glyph-name="seven" unicode="7" 
d="M356 2028q-57 0 -57 77l90 426q11 55 20.5 79t41.5 24q-28 0 171.5 -10.5t471.5 -10.5q258 0 468 10.5t187 10.5q53 0 53 -82q0 -151 -28 -283q-59 -263 -132 -438l-155 -369q-137 -330 -209 -573q-90 -336 -90 -516q0 -104 18 -174t43 -133.5t25 -85.5q0 -45 -144.5 -78
t-248.5 -33q-86 0 -113 80.5t-27 247.5q0 248 100 491.5t269 511.5l205 316q274 422 274 647q0 56 -32 71t-95 15q-66 2 -197 5t-237 3q-76 0 -171.5 -1.5t-143.5 -2.5q-117 0 -186 -32.5t-101 -131.5q-18 -61 -70 -61zM360 2130q-4 0 50 127l73 184q25 59 45 62
q-6 0 59 -6.5t163 -6.5h864q61 0 61 33q0 37 -41 37q-32 0 -194 -2t-330 -2q-214 0 -427 6t-183 6q-54 0 -54 -57q0 -12 -45 -147t-45 -185q0 -7 2 -24t2 -25zM1282 1348q-131 -142 -262 -390q-207 -373 -229 -737q0 -295 73 -295q17 0 17 21q0 -6 -12.5 76t-12.5 182
q0 335 225 778q111 221 201 365z" />
    <glyph glyph-name="eight" unicode="8" 
d="M643 1307q-174 112 -259 250t-85 323q0 220 116 384.5t300 250.5t383 86q295 0 512 -144.5t217 -420.5q0 -170 -106.5 -312t-270.5 -192q-53 -11 -53 -37q0 -29 33 -45q197 -84 294 -176q209 -190 209 -504q0 -193 -68 -344.5t-191 -252t-286 -151.5t-352 -51
q-361 0 -608.5 197t-247.5 549q0 125 63 254.5t163 204.5q64 53 237 131zM1044 2478q-192 0 -325 -111t-133 -282q0 -156 114.5 -271.5t275 -176t281.5 -60.5q139 0 221.5 131t82.5 299q0 134 -72.5 242.5t-191.5 168.5t-253 60zM741 1245q-270 -118 -270 -422
q0 -197 70.5 -365.5t216 -272t356.5 -103.5q129 0 250 58t197.5 171t76.5 267q0 150 -83 251t-188.5 154.5t-301.5 130.5q-164 66 -246 98zM1352 2445q258 -200 258 -442q0 -131 -54 -262q115 87 115 278q0 95 -41 186t-113 155t-165 85zM504 2290q-160 -171 -160 -422
q0 -411 565 -639l312 -127q462 -183 462 -520q0 -119 -73 -291q127 121 127 315q0 197 -134.5 337.5t-345.5 223.5l-303 119q-548 211 -548 627q0 175 98 377zM414 1106q-88 -70 -136.5 -186t-48.5 -232q0 -230 139 -401t373 -226l-57 37q-191 119 -290 264t-99 351
q0 184 119 393z" />
    <glyph glyph-name="nine" unicode="9" 
d="M168 1671q0 269 104.5 488t305 345t471.5 126q434 0 671 -320q230 -316 230 -721q0 -186 -44.5 -367t-129 -345t-206.5 -307.5t-272 -250.5q-279 -204 -622 -299q-192 -49 -291 -49q-70 0 -70 66q0 50 86 65q272 63 492 210.5t364 371.5q49 72 113 213t64 209
q0 53 -33 53q-27 0 -70 -29q-274 -188 -512 -188q-192 0 -341 101.5t-229.5 270t-80.5 357.5zM549 1909q0 -169 64.5 -341.5t190 -284.5t294.5 -112q145 0 243.5 75t146.5 197t48 261q0 165 -69 355.5t-200.5 323t-303.5 132.5q-218 0 -336 -217q-78 -150 -78 -389zM688 127
q390 118 651 459q103 136 176.5 317t110.5 373t37 371q0 318 -125.5 562.5t-402.5 321.5q241 -148 345.5 -358t104.5 -506q0 -273 -85.5 -569.5t-237.5 -507.5q-231 -308 -574 -463zM659 1036q-121 81 -167 131q-209 221 -209 582q0 247 82 451q-152 -207 -152 -484
q0 -163 58 -315t171 -258q75 -70 217 -107z" />
    <glyph glyph-name="colon" unicode=":" horiz-adv-x="1036" 
d="M586 643l237 -242q37 -35 37 -73q0 -29 -33 -62l-258 -258q-20 -20 -61 -20q-22 0 -57 37l-246 245q-25 31 -25 66q0 28 33 61l246 242q33 41 61 41q17 0 66 -37zM586 1872l237 -242q37 -35 37 -74q0 -30 -33 -61l-258 -258q-20 -20 -61 -20q-21 0 -57 36l-246 246
q-25 31 -25 66q0 28 33 61l246 242q33 41 61 41q17 0 66 -37zM360 369l144 143q41 41 41 57q0 21 -25 21q-16 0 -53 -37l-172 -172q-37 -37 -37 -45q0 -16 25 -49l180 -176q30 -33 45 -33q29 0 29 24q0 27 -21 41l-156 160q-20 20 -20 33q0 10 20 33zM360 1597l144 144
q41 41 41 57q0 21 -25 21q-16 0 -53 -37l-172 -172q-37 -40 -37 -45q0 -16 25 -49l180 -177q32 -32 45 -32q29 0 29 24q0 27 -21 41l-156 160q-20 20 -20 33q0 12 20 32z" />
    <glyph glyph-name="semicolon" unicode=";" horiz-adv-x="1036" 
d="M586 1872l237 -242q37 -35 37 -74q0 -30 -33 -61l-258 -258q-20 -20 -61 -20q-21 0 -57 36l-246 246q-25 31 -25 66q0 28 33 61l246 242q33 41 61 41q17 0 66 -37zM254 537l217 233q29 29 66 29q110 0 198 -140.5t88 -257.5q0 -365 -331 -684q-147 -147 -218 -147
q-17 0 -33 15t-16 34q0 26 77 100.5t127 148t50 177.5q0 152 -209 328q-57 57 -57 78q0 37 41 86zM360 1597l144 144q41 41 41 57q0 21 -25 21q-16 0 -53 -37l-172 -172q-37 -40 -37 -45q0 -16 25 -49l180 -177q32 -32 45 -32q29 0 29 24q0 27 -21 41l-156 160
q-20 20 -20 33q0 12 20 32zM496 -74q69 91 69 176q0 167 -168 320q-28 28 -28 49q0 5 24 41l123 131q29 29 29 45q0 29 -37 29q-8 0 -16.5 -9.5t-12.5 -15.5l-180 -192q-25 -27 -25 -49q0 -14 10 -27t25.5 -24.5t30.5 -22.5q70 -54 125 -138.5t55 -152.5q0 -73 -24 -160z
" />
    <glyph glyph-name="less" unicode="&#x3c;" 
d="M1909 2331v-201l-1168 -754l1168 -786v-529l-1708 1156v28z" />
    <glyph glyph-name="equal" unicode="=" 
d="M1888 1544v-127q0 -98 -78 -98h-1515q-39 0 -56.5 10t-17.5 47v115q0 102 74 102h1544q49 0 49 -49zM1888 1053v-127q0 -99 -78 -99h-1515q-39 0 -56.5 10.5t-17.5 47.5v114q0 103 74 103h1544q49 0 49 -49zM295 1405q5 70 74 70h1409q49 0 49 32q0 29 -62 29h-1429
q-53 0 -53 -66q0 -6 2.5 -19t5.5 -24.5t4 -21.5zM295 913q3 41 18.5 55.5t55.5 14.5h1409q49 0 49 33q0 28 -62 28h-1429q-53 0 -53 -65q0 -7 2.5 -20t5.5 -24.5t4 -21.5z" />
    <glyph glyph-name="greater" unicode="&#x3e;" 
d="M201 61v201l1171 754l-1171 786v529l1708 -1155v-29z" />
    <glyph glyph-name="question" unicode="?" horiz-adv-x="1479" 
d="M1311 2302q0 -132 -53 -228.5t-160 -218.5q-180 -202 -272.5 -343.5t-92.5 -311.5q0 -41 12.5 -95t12.5 -65q0 -53 -41 -53q-55 0 -93 86.5t-38 204.5q0 110 25.5 204.5t74.5 205t92 208.5q99 240 99 336q0 112 -75 197.5t-196 85.5t-237 -139q-33 -33 -58 -33
q-41 0 -41 45q0 82 68.5 168.5t189.5 143.5t267 57q131 0 250.5 -54.5t192.5 -158t73 -242.5zM856 643l238 -242q36 -36 36 -73q0 -28 -32 -62l-258 -258q-21 -20 -62 -20q-22 0 -57 37l-246 245q-24 31 -24 66q0 29 32 61l246 242q33 41 62 41q19 0 65 -37zM520 2560
q21 4 86 4q86 0 158 -42.5t115 -119.5t43 -170q0 -130 -99 -340q-31 -70 -58 -129t-47 -113.5t-33 -113.5t-13 -115q0 -14 1.5 -36t2.5 -33q8 34 27 102.5t30 97.5q33 88 152 316q119 233 119 377q0 149 -94 252.5t-238 103.5q-79 0 -152 -41zM631 369l143 143q41 41 41 57
q0 21 -24 21q-14 0 -54 -37l-172 -172q-37 -37 -37 -45q0 -11 25 -49l180 -176q30 -33 45 -33q29 0 29 24q0 28 -21 41l-155 160q-21 21 -21 33q0 9 21 33z" />
    <glyph glyph-name="at" unicode="@" horiz-adv-x="2986" 
d="M2191 926q100 0 190.5 103t144.5 256t54 292q0 286 -134.5 513t-365 354.5t-503.5 127.5q-250 0 -482 -107t-399 -298q-146 -164 -228.5 -375.5t-82.5 -427.5q0 -239 91 -460t255 -388.5t379.5 -261.5t458.5 -94q378 0 643 159q21 13 29 13q30 0 49 -33l53 -78
q12 -18 12 -49q0 -17 -15 -30t-40 -25.5t-35 -18.5q-303 -151 -684 -151q-386 0 -717.5 187t-526 513t-194.5 717q0 385 196 711.5t527 518t715 191.5q245 0 470 -82t397.5 -237t271 -374t98.5 -486q0 -533 -393 -799q-75 -52 -200 -79.5t-165 -27.5q-43 0 -64.5 7.5
t-90.5 42.5q-45 24 -70 85.5t-33 61.5q-10 0 -68 -51.5t-144 -90t-214 -38.5q-229 0 -364 161t-135 396q0 194 83 367t238 277.5t363 104.5q180 0 335 -90q19 -12 48.5 -30.5t33.5 -18.5q7 0 58 86t78 86q24 0 24 -28q0 7 -12 -123t-12 -205v-680q0 -59 13 -76.5t64 -17.5z
M1733 1880q34 -24 84.5 -87.5t50.5 -154.5v-622q0 -226 160 -262q-99 122 -99 266v598q0 102 -45.5 160.5t-150.5 101.5zM1778 2658q233 -74 430 -219.5t315.5 -366.5t118.5 -507q0 -149 -34.5 -261.5t-76.5 -181.5t-73 -118q101 114 144 173.5t72 154.5t29 241
q0 241 -65.5 423.5t-237.5 354.5q-267 267 -622 307zM651 2310q-217 -156 -337.5 -410t-120.5 -532q0 -355 172 -659t469 -482t653 -178h53q-226 28 -487 131q-351 149 -571 475.5t-220 708.5q0 501 389 946zM1155 1827q-111 -87 -172 -238.5t-61 -306.5q0 -163 64.5 -284
t158.5 -182.5t182 -61.5q11 0 28 2t29 2q-191 59 -262 147q-135 148 -135 369q0 167 41 274q75 209 127 279zM1823 1098v540q0 82 -90 181q-116 114 -238 114q-166 0 -253 -122.5t-87 -340.5q0 -136 48 -269t144.5 -218.5t233.5 -85.5q145 0 205 78q37 37 37 123z" />
    <glyph glyph-name="A" unicode="A" horiz-adv-x="2773" 
d="M1348 2765h82l1019 -2380q44 -105 108 -163t171 -91q65 -21 96 -36.5t31 -53.5q0 -66 -82 -66q17 0 -194.5 25t-329.5 25q-127 0 -326 -25t-182 -25q-62 0 -62 62q0 22 18 37.5t46 27t51 21.5q72 31 110 89.5t38 127.5q0 64 -25 139l-152 361q-28 64 -47.5 84.5t-90 29.5
t-255.5 9h-270q-235 0 -311.5 -27.5t-110.5 -87.5q-152 -255 -152 -475q0 -112 91.5 -189.5t195.5 -77.5q135 0 135 -69q0 -25 -35.5 -43.5t-66.5 -18.5q-3 0 -162.5 20.5t-251.5 20.5q-66 0 -205 -18t-151 -18q-92 0 -98 65q0 43 45 66l77 41q107 53 205 241q48 88 123 287
q63 150 119 299q57 143 117 282t94 215t107 236t153 336zM967 1143h532q115 0 115 49q0 13 -12.5 45.5t-20.5 52.5q-11 35 -121.5 285t-181.5 407q-30 78 -61 78q-25 0 -33 -32l-41 -78q-63 -133 -201 -451q-20 -50 -39 -95.5t-32.5 -83t-22.5 -75.5q0 -102 119 -102z
M1905 131q155 57 155 229q0 55 -13 106.5t-37 109t-48 116.5l-635 1487q-11 33 -29 33q-41 0 -41 -37q0 -11 9 -29l684 -1601q45 -119 45 -180q0 -118 -90 -234zM373 406l-21 -37q-66 -134 -221 -275q136 28 189 101t53 211z" />
    <glyph glyph-name="B" unicode="B" horiz-adv-x="2798" 
d="M1978 1532q332 -77 502 -225t170 -463q0 -136 -40.5 -269t-119.5 -243.5t-192 -179.5q-257 -164 -651 -164q-39 0 -170.5 5.5t-351.5 14t-294 8.5q-146 0 -332 -16t-167 -16q-49 8 -49 45q0 36 17 57t44 32t53 21q176 83 176 406v1573q0 223 -69 343.5t-271 151.5
q-122 12 -122 62q0 82 82 82q91 0 197.5 -18.5t146.5 -18.5h303q36 0 172.5 12.5t220.5 20.5q98 4 291 4q217 0 427 -67.5t348 -214t138 -370.5q0 -416 -459 -573zM1294 1544h340q161 0 273 101t112 317q0 266 -192 459q-186 192 -488 192q-315 0 -315 -241v-582
q0 -246 270 -246zM1012 1200v-610q0 -168 50.5 -268t162 -145.5t299.5 -45.5q132 0 208.5 12.5t159.5 61.5q145 78 218 230.5t73 334.5q0 234 -131 372t-330.5 190t-435.5 52q-138 0 -206 -32.5t-68 -151.5zM1642 2609q125 -62 219.5 -157.5t148.5 -220t54 -261.5
q0 -205 -118 -356q85 46 136.5 143.5t51.5 212.5q0 218 -136.5 414.5t-355.5 224.5zM1802 1372l53 -29q194 -105 254 -180q127 -162 127 -393q0 -404 -315 -602q142 27 229.5 123.5t125.5 229.5t38 282q0 231 -142 381.5t-370 187.5zM512 139q188 78 188 406v1642
q0 147 -60.5 260t-188.5 146q102 -91 141 -178.5t39 -227.5v-1638q0 -254 -119 -410z" />
    <glyph glyph-name="C" unicode="C" horiz-adv-x="2724" 
d="M631 1454q0 -463 225 -795q87 -133 209 -237t269.5 -162.5t299.5 -58.5q148 0 295.5 50t279.5 140t236 203q57 65 86 65q41 0 41 -41q0 -108 -180 -278q-399 -393 -954 -393q-272 0 -526.5 107t-432.5 302q-164 180 -250 419.5t-86 494.5q0 192 40 376.5t122 354.5
t207 313q113 130 269.5 237t336 168.5t352.5 61.5q337 0 758 -217q157 -86 209 -86q17 0 59 45t64 45q66 0 66 -110q0 -35 -6.5 -139t-6.5 -181q0 -33 12.5 -176.5t12.5 -179.5q0 -131 -58 -131q-37 0 -49.5 27t-31.5 91q-126 353 -357 578q-145 139 -313 215t-322 76
q-201 0 -380 -106t-291 -267q-205 -296 -205 -811zM913 2552q-232 -97 -393 -300.5t-240 -461t-79 -516.5q0 -267 105.5 -524t295.5 -435q132 -124 325 -215.5t355 -91.5q74 0 115 4q-249 35 -452.5 139t-352.5 271.5t-229 383.5t-80 468q0 407 154.5 711t475.5 567z
M2081 2466q230 -177 348 -402l45 -77q6 -19 20 -33q-16 172 -132.5 327.5t-280.5 184.5z" />
    <glyph glyph-name="D" unicode="D" horiz-adv-x="3105" 
d="M565 573v1553q0 228 -85 364t-271 136q-107 0 -107 69q0 22 22.5 42t47.5 20q13 0 93.5 -6.5t131.5 -6.5h312q36 0 300.5 6.5t563.5 6.5q269 0 522 -78t445 -238q133 -109 233 -259t154.5 -322t54.5 -344q0 -316 -108 -606t-318 -509q-204 -213 -461.5 -315t-562.5 -102
q-66 0 -356 18t-340 18q-81 0 -293 -16t-215 -16q-66 0 -66 53q0 34 19 48.5t56.5 22.5t51.5 15q59 29 95.5 68.5t58.5 129t22 248.5zM1008 2331v-1733q0 -190 60 -292.5t179 -140.5t318 -38q297 0 514.5 167.5t330.5 435t113 556.5q0 278 -86 540t-258 443
q-102 108 -232.5 184t-278 116t-292.5 40q-187 0 -277.5 -54.5t-90.5 -223.5zM467 2605q98 -106 124.5 -200t26.5 -251v-86v-1556q0 -204 -114 -369q123 67 153.5 174t30.5 293v1602q0 329 -221 393zM1729 2605q360 -123 573 -405q86 -115 148.5 -261.5t94 -300t31.5 -307.5
q0 -343 -98.5 -585.5t-335.5 -479.5q270 165 389 444t119 629q0 275 -111.5 561t-321.5 482t-488 223z" />
    <glyph glyph-name="E" unicode="E" horiz-adv-x="2413" 
d="M557 586v1618q0 212 -59.5 309t-235.5 117q-131 13 -131 73q0 58 152 58q9 0 152 -8.5t342.5 -14.5t492.5 -6q416 0 665.5 12.5t194.5 12.5q45 0 45 -66q9 -98 23 -247.5t14 -182.5q0 -172 -86 -172q-45 0 -45 74q0 211 -127 303q-134 94 -443 94q-23 0 -81 2t-91 2
q-156 0 -237 -33q-94 -36 -94 -172v-663q0 -148 143 -148h201q236 0 323 74q42 35 64.5 78.5t48.5 107t45.5 88.5t54.5 25q49 0 49 -98q0 -38 -8 -121t-8 -105q0 -147 16.5 -316t16.5 -216q0 -107 -58 -107q-31 0 -46 25.5t-24 75t-11 55.5q-37 172 -156 217
q-122 45 -459 45q-102 0 -147 -32.5t-45 -131.5v-692q0 -131 26.5 -203.5t87 -102.5t168.5 -30q330 0 541 78q320 118 430 344q8 16 18.5 39.5t24.5 39t35 15.5q45 0 45 -73q0 -156 -74 -312q-75 -160 -223.5 -247.5t-329.5 -87.5q-32 0 -187.5 13t-317.5 22.5t-334 9.5
q-269 0 -435 -8.5t-139 -8.5q-65 0 -65 41q0 51 28 62l78 32q107 43 139.5 164t32.5 279zM492 2605q79 -79 100.5 -161.5t21.5 -219.5v-1614q0 -298 -135 -458q131 42 168 185.5t37 391.5v1409v90q0 152 -36 246t-156 131zM1769 1622q-65 -96 -127 -143q67 -36 127 -111v254
zM1741 2601q195 -38 303 -152q20 -20 33 -32q0 81 -64.5 140.5t-148.5 59.5q-63 0 -123 -16zM2212 442q-151 -127 -297.5 -197t-341.5 -98q80 -16 147 -16q166 0 320 98q122 77 172 213z" />
    <glyph glyph-name="F" unicode="F" horiz-adv-x="2290" 
d="M578 631v1499q0 170 -18.5 260.5t-88.5 149.5t-221 81q-103 25 -103 66q0 70 123 70q42 0 261 -16.5t419 -16.5l881 16q52 0 133 8.5t109 8.5q76 0 99 -14t23 -77q8 -136 33 -397q0 -172 -57 -172q-70 0 -70 131q0 166 -159 262q-123 78 -443 78q-344 0 -418 -69
q-53 -62 -53 -254v-521q0 -110 43 -147t158 -37h168q189 0 278.5 61.5t147.5 237.5q19 78 65 78q58 0 58 -74q0 -50 -6.5 -149.5t-6.5 -186.5q0 -80 16.5 -282t16.5 -217q0 -62 -53 -62q-74 0 -74 86q0 201 -115 271q-99 61 -299 61h-163q-115 0 -163 -24.5t-59.5 -77
t-11.5 -177.5v-491q0 -158 27 -255t107 -154.5t235 -69.5q47 -4 68.5 -14t21.5 -52q0 -65 -98 -65q10 0 -180 16t-324 16q-172 0 -329 -14t-159 -14q-110 0 -110 49q0 56 82 82q209 68 209 512zM463 2605q106 -63 139 -164q33 -110 33 -352v-1376q0 -200 -23 -330.5
t-112 -235.5q92 43 136.5 124t56.5 184.5t12 261.5v1298v152q0 224 -54 319q-52 99 -188 119zM1794 1610q-56 -74 -135 -135q82 -48 135 -123v258zM1782 2609q156 -20 311 -168q-16 80 -65.5 132.5t-122.5 52.5q-82 0 -123 -17z" />
    <glyph glyph-name="G" unicode="G" horiz-adv-x="2908" 
d="M143 1225q0 746 451 1192q373 364 901 364q340 0 717 -180q33 -17 70 -36t78 -34.5t69 -15.5q43 0 72 35t51 35q38 0 47.5 -29.5t9.5 -114.5q0 -46 -6 -141t-6 -146q0 -49 4 -147t4 -147q0 -136 -61 -136q-50 0 -62 111q-44 231 -193.5 413t-358.5 284t-419 102
q-237 0 -409.5 -109t-276.5 -286.5t-151 -388t-47 -416.5q0 -216 50.5 -447.5t159 -429.5t282.5 -320t409 -122q126 0 274 46.5t234 121.5q118 96 118 471q0 147 -56.5 263.5t-258.5 121.5q-143 0 -143 78q0 21 16 39t41 18q-6 0 220.5 -14.5t422.5 -14.5q103 0 221 4t131 4
q103 0 103 -49q0 -61 -41 -74l-78 -20q-95 -25 -121 -139t-26 -365v-139q0 -74 -10.5 -114t-35 -60.5t-67 -36t-121.5 -43.5l-270 -102q-215 -80 -372.5 -122t-311.5 -42q-549 0 -893 344q-121 121 -201 271t-120 320t-40 343zM987 2626q-242 -104 -438 -332
q-352 -412 -352 -1073q0 -288 119 -552t339 -440q255 -207 545 -213q-213 61 -387 173.5t-295.5 269.5t-184.5 350t-63 416q0 470 169 792.5t548 608.5zM2097 2490l49 -36q219 -180 324 -418v69q0 124 -118 244t-255 141zM2077 1126q76 -90 101.5 -191t25.5 -243
q0 -221 -78 -373q155 90 155 373q0 375 -204 434z" />
    <glyph glyph-name="H" unicode="H" horiz-adv-x="3342" 
d="M561 586v1609q0 146 -35.5 229t-116.5 128t-225 74q-78 11 -78 73q0 58 82 58q-7 0 167.5 -12.5t336.5 -12.5q183 0 351 12.5t182 12.5q90 0 90 -58q0 -41 -25.5 -52.5t-77.5 -20.5q-200 -35 -200 -328v-594q0 -114 41 -143t164 -29h937q113 0 145 32t32 140v504
q0 392 -320 430q-90 9 -90 69q0 50 78 50q8 0 218 -12.5t310 -12.5q102 0 265 12.5t174 12.5q86 0 86 -50q0 -38 -20.5 -47t-78.5 -26q-106 -32 -139 -134.5t-33 -254.5v-95v-1417q0 -198 20.5 -321t104.5 -210t260 -104q70 -8 70 -65q0 -49 -103 -49q-3 0 -210 18t-302 18
q-145 0 -329 -22.5t-174 -22.5q-74 0 -74 50q0 38 19.5 49.5t66.5 27.5q124 49 162.5 177.5t38.5 306.5v553q0 113 -22.5 154.5t-121.5 41.5h-970q-93 0 -135 -16.5t-56 -59.5t-14 -133v-487q0 -167 27 -276.5t112 -177t250 -83.5q82 -9 82 -61q0 -61 -103 -61q-4 0 -242 18
t-331 18q-46 0 -259 -14t-220 -14q-61 7 -66 57q0 12 46 37t61 37q192 166 192 467zM442 2601q98 -82 135 -162.5t37 -214.5v-1659q0 -143 -21 -238t-97 -171q127 50 159 163q25 82 25 259v1630q0 162 -49.5 259.5t-188.5 133.5zM2212 2601q98 -82 135 -162.5t37 -214.5
v-1659q0 -143 -22.5 -239.5t-96.5 -169.5q127 50 160 163q24 82 24 259v1630q0 161 -49 259t-188 134z" />
    <glyph glyph-name="I" unicode="I" horiz-adv-x="1569" 
d="M573 586v1609q0 146 -35.5 229t-115 127.5t-225.5 74.5q-74 20 -74 49q0 82 57 82q-12 0 160.5 -12.5t364.5 -12.5q182 0 334.5 12.5t160.5 12.5q127 0 127 -54q0 -41 -25 -52.5t-77 -20.5q-201 -39 -201 -332v-1630q0 -181 24 -293.5t108.5 -184.5t256.5 -88
q82 -9 82 -61q0 -57 -102 -57q-4 0 -243 16t-331 16q-44 0 -257 -14t-222 -14q-66 0 -66 57q0 32 22.5 47t84.5 27q192 39 192 467zM455 2601q98 -82 135 -162t37 -211v-1663q0 -140 -22 -236t-97 -173q127 50 160 163q24 82 24 259v1630q0 162 -49.5 259.5t-187.5 133.5z
" />
    <glyph glyph-name="J" unicode="J" horiz-adv-x="1335" 
d="M487 500v1528q0 28 2.5 79.5t2.5 96.5q0 183 -60.5 286.5t-251.5 122.5q-71 6 -109 18t-38 56q0 70 119 70q28 0 214 -27t277 -27q122 0 293.5 27t181.5 27q119 0 119 -54q0 -40 -20.5 -50t-81.5 -27q-107 -33 -152 -154t-45 -264v-1487q0 -492 -164 -795
q-103 -189 -283 -344t-364 -155q-68 0 -161 28.5t-93 73.5q0 52 46 159.5t104 195t92 87.5q18 0 109 -125t132 -125q131 0 131 631v148zM442 2560q26 -28 64.5 -112.5t38.5 -231.5v-2011q0 -142 -30.5 -260t-51.5 -170q37 29 92 137t55 326v1978q0 193 -63 264t-105 80z
M139 -131q0 29 -24 29q-45 0 -113 -146t-68 -190q0 -45 21 -45q17 0 27.5 13.5t17 32t12.5 36.5q47 114 86 184q41 58 41 86z" />
    <glyph glyph-name="K" unicode="K" horiz-adv-x="3035" 
d="M569 582v1585q0 212 -65 314t-266 136q-4 1 -27.5 6.5t-43 15t-30 24t-10.5 36.5q0 58 66 58q-8 0 187.5 -20.5t356.5 -20.5q106 0 297.5 20.5t198.5 20.5q26 0 54 -15t28 -35q0 -32 -18.5 -49t-49.5 -27t-55 -18q-172 -46 -172 -311v-872q0 -95 37 -95q22 0 50.5 22
t73 66.5t68.5 67.5l594 582q115 107 230 249q65 78 65 181q0 90 -143 123q-70 13 -96.5 22.5t-26.5 54.5q0 23 22 38.5t43 15.5q62 0 255.5 -20.5t224.5 -20.5q42 0 211 20.5t202 20.5q111 0 111 -50q0 -63 -86 -90q-172 -42 -344 -163q-224 -170 -524 -480l-218 -217
q-54 -54 -76 -81t-22 -62q0 -24 12 -47.5t31 -50t43 -58.5l770 -1020q200 -264 512 -319q90 -24 90 -90q0 -49 -57 -49q-7 0 -158 10t-178 10q-31 0 -173 -10t-167 -10q-79 0 -124.5 26.5t-85 80.5t-101.5 142q-69 91 -196.5 261t-277 370t-157.5 213q-37 58 -94 144t-70 86
q-23 0 -60.5 -32t-81.5 -80.5t-54 -60.5q-51 -63 -62.5 -103.5t-11.5 -137.5v-340q0 -189 64 -292.5t239 -141.5q102 -25 102 -58q0 -77 -65 -77q-1 0 -216 20t-300 20q-73 0 -217 -14t-213 -14q-87 0 -117.5 9t-30.5 44q0 53 78 70q225 54 225 467zM487 2585
q35 -30 87.5 -114t52.5 -218v-1712q0 -155 -52.5 -261t-87.5 -145q51 16 128 97.5t77 279.5v1724q0 206 -77 275t-128 74zM2150 2609q10 -11 25.5 -43t15.5 -88t-29 -107.5t-48 -76.5q34 15 84.5 61t50.5 119q0 81 -37 107.5t-62 27.5zM1384 1397q-36 0 -36 -33
q0 -18 20 -47.5t41.5 -56t32.5 -43.5q47 -81 193 -288.5t318 -436.5t292 -369q23 -27 51.5 -58.5t62.5 -31.5q20 6 25 20q0 11 -43 66t-112.5 140t-102.5 126q-186 237 -262 348l-197 279q-33 49 -77.5 111.5t-82.5 121.5q-82 152 -123 152z" />
    <glyph glyph-name="L" unicode="L" horiz-adv-x="2380" 
d="M578 516v1606q0 224 -70 345t-275 154q-65 14 -89.5 25.5t-24.5 56.5q0 18 21 36t40 18q5 0 204 -22.5t308 -22.5q200 0 398 22.5t176 22.5q22 0 45.5 -19.5t23.5 -38.5q0 -42 -24.5 -52t-85.5 -21q-124 -22 -160.5 -109t-36.5 -236v-1781q0 -177 53.5 -254.5
t225.5 -77.5q344 0 553 90q289 120 421 348q43 74 86 74q15 0 24 -23t9 -43q0 -98 -44.5 -220.5t-106.5 -205.5q-91 -121 -214 -164.5t-298 -43.5q-53 0 -432 20t-424 20q-51 0 -284 -14t-237 -14q-24 0 -44.5 16.5t-20.5 40.5q0 56 123 90q160 49 160 377zM479 2589
q39 -36 97.5 -138.5t58.5 -267.5v-1671q0 -163 -47.5 -257t-79.5 -124q49 10 123 83t74 265v1716q0 227 -84.5 306.5t-141.5 87.5zM1552 131q132 -16 160 -16q192 0 348 114q116 82 201 258q-139 -159 -303.5 -237t-405.5 -119z" />
    <glyph glyph-name="M" unicode="M" horiz-adv-x="3699" 
d="M594 2273q-150 316 -344 344q-26 3 -62.5 8.5t-59 23t-22.5 54.5q0 54 103 54q44 0 135.5 -12.5t163.5 -12.5q51 0 156 12.5t122 12.5q136 0 189 -123l741 -1684q18 -54 66 -147.5t90 -93.5q17 0 32 18.5t27 45t23 50.5l790 1717q54 116 91.5 166.5t113.5 50.5
q20 0 111 -8.5t118 -8.5q86 0 156.5 8.5t114.5 8.5q74 0 74 -45q0 -41 -21 -53.5t-65 -20.5q-299 -50 -299 -484l36 -1429q5 -171 19 -278.5t67 -184.5q73 -104 275 -143q90 -16 90 -78q0 -53 -53 -53q-3 0 -83 7.5t-203 14t-255 6.5q-88 0 -296 -16l-208 -16q-65 0 -65 57
q0 30 23 42.5t67 27.5q180 55 180 376l-37 1233q0 127 -37 127q-36 0 -73 -78l-775 -1650q-12 -26 -27.5 -57t-37 -54.5t-49.5 -23.5q-63 0 -160 237l-590 1340q-20 46 -51 119t-64.5 136.5t-52.5 63.5q-20 0 -20 -29q0 -37 -6.5 -208t-10.5 -291q0 -62 -4.5 -264.5
t-7.5 -325.5q0 -160 18.5 -281.5t98 -227.5t244.5 -138q23 -3 44 -22t21 -40q0 -69 -74 -69q3 0 -165 18t-240 18q-98 0 -251 -12t-151 -12q-65 0 -65 65q0 42 82 62q118 39 173 150.5t77 267.5q14 115 32 508q21 370 21 688v536zM455 2572q101 -107 200 -278
q56 -98 185 -381l786 -1741q20 -49 49 -49q21 0 21 24q0 32 -8 50l-787 1732q-74 167 -116 255t-97 171q-104 172 -233 217zM2888 2638q-98 -149 -125 -346t-27 -469l41 -1299q0 -258 -65 -368q78 41 102.5 127.5t24.5 253.5l-41 1347q0 465 90 754zM590 590
q-20 -250 -98 -422q114 96 114 250q0 95 -16 172z" />
    <glyph glyph-name="N" unicode="N" horiz-adv-x="3252" 
d="M2638 -37l-1807 2081q-16 24 -45 24q-36 0 -36 -184q-9 -323 -9 -971v-176q0 -342 86 -475q86 -124 320 -156q90 -16 90 -90q0 -36 -115 -36q-16 0 -211 20t-227 20q-69 0 -242 -16t-176 -16q-69 0 -69 65q0 44 94 74q165 70 213 229q28 95 39.5 205.5t12 236t1.5 238.5
l12 668q0 61 4.5 175.5t4.5 197.5q0 268 -164 422q-104 91 -262 118q-82 16 -82 86q0 20 15.5 37t37.5 17q16 0 146.5 -10.5t181.5 -10.5q31 0 191 10.5t185 10.5q55 -3 94.5 -38t94.5 -102l1409 -1659q94 -110 135 -110t41 168l16 327q9 333 9 439v184q0 375 -86 508
q-45 75 -115.5 97.5t-220.5 45.5q-103 10 -103 66q0 30 19 52t51 22q-6 0 210.5 -18.5t371.5 -18.5q72 0 192 18.5t127 18.5q61 0 61 -45q0 -42 -22.5 -56t-71.5 -30q-153 -60 -199.5 -206.5t-46.5 -363.5v-119q0 -82 -7 -303t-18.5 -525t-17.5 -505.5t-6 -308.5
q0 -51 2 -129t2 -105q0 -131 -49 -131q-35 0 -61 33zM602 631q-12 -161 -39.5 -269.5t-107.5 -189.5q159 43 159 266q0 94 -12 193zM389 2601q103 -70 238 -221l1929 -2224q20 -29 45 -29t25 29q0 17 -33 61l-1864 2146q-99 119 -168.5 177t-171.5 61zM2478 2605
q95 -65 131 -146t53 -214q17 59 17 139q0 86 -56 150.5t-145 70.5z" />
    <glyph glyph-name="O" unicode="O" horiz-adv-x="3113" 
d="M139 1278q0 619 336 1012q130 149 306 260t376.5 171t398.5 60q189 0 365.5 -34.5t339 -110t295.5 -195.5q205 -184 309.5 -446t104.5 -549q0 -203 -51 -409t-152 -390t-244 -323q-191 -188 -447 -282.5t-536 -94.5q-460 0 -778 184q-343 205 -500 553q-123 276 -123 594
zM618 1499q0 -556 259 -967q124 -194 326 -322t419 -128q211 0 383.5 99t288.5 278q221 345 221 831q0 262 -84.5 512t-247.5 443q-97 111 -219 196.5t-260.5 132.5t-282.5 47q-168 0 -321.5 -85t-263.5 -226q-218 -302 -218 -811zM737 2445q-266 -169 -405 -479.5
t-139 -650.5q0 -282 97.5 -537.5t291.5 -441.5q281 -269 630 -303q-431 154 -643 397q-307 349 -307 873q0 205 50.5 413t150.5 385q76 131 274 344zM1712 2634q383 -146 594 -467q262 -396 262 -889q0 -479 -205 -803q-91 -148 -278 -307q205 102 323 287q230 338 230 819
q0 568 -336 991q-250 324 -590 369z" />
    <glyph glyph-name="P" unicode="P" horiz-adv-x="2519" 
d="M565 557v1602q0 220 -85.5 334.5t-295.5 140.5q-78 11 -78 45q0 78 95 78q7 0 184.5 -12.5t429.5 -12.5q44 0 335 12.5t390 12.5q447 0 688 -201q124 -102 193 -258.5t69 -323.5q0 -228 -117 -408.5t-311.5 -279t-419.5 -98.5q-172 0 -321.5 39t-149.5 100q0 57 58 57
q-2 0 108 -18t166 -18q159 0 273 76t172.5 204.5t58.5 284.5q0 155 -78 319t-219 272.5t-321 108.5q-146 0 -259.5 -63.5t-113.5 -222.5v-1635q0 -191 20.5 -300.5t102 -185t254.5 -95.5q90 -11 90 -70q0 -57 -90 -57q-14 0 -204 16t-321 16q-117 0 -286 -14t-193 -14
q-119 0 -119 45q0 32 18 48t60 28.5t45 13.5q172 61 172 434zM451 2601q43 -29 107.5 -116.5t64.5 -239.5v-1762q0 -118 -38.5 -210t-64.5 -130q43 17 107.5 92t64.5 244v1782q0 199 -90.5 266.5t-150.5 73.5zM1667 2609q169 -108 281 -301t112 -391q0 -361 -307 -565
q165 47 250 147q135 159 135 414q0 236 -127.5 430t-343.5 266z" />
    <glyph glyph-name="Q" unicode="Q" horiz-adv-x="3146" 
d="M705 176q-562 435 -562 1184q0 304 122 592t345 481q204 173 467.5 260.5t548.5 87.5q294 0 542.5 -100.5t427.5 -284t276.5 -435.5t97.5 -548q0 -164 -40 -336.5t-116 -335.5t-180 -295q-209 -256 -463 -364q-57 -13 -57 -45q0 -15 13 -27t34 -22.5t34 -16.5l177 -69
q278 -123 462 -123q136 0 238 102q36 45 82 45q29 0 29 -41q0 -67 -177 -225q-121 -109 -252.5 -161t-312.5 -52q-128 0 -454 139l-369 156q-78 31 -222 89.5t-241 90.5q-157 53 -262 53q-174 0 -255 -93t-106 -275q-7 -66 -65 -66q-61 0 -61 131q0 155 81.5 288.5
t217.5 215.5zM618 1577q0 -650 295 -1073q139 -194 337.5 -302t432.5 -108q204 0 363 106t264 278.5t157 374t52 396.5q0 302 -95.5 582.5t-289.5 482.5q-302 316 -713 316q-109 0 -217.5 -38.5t-202 -108.5t-161.5 -161q-222 -289 -222 -745zM807 2507q-288 -159 -447 -479
t-159 -672q0 -511 250 -852q149 -211 335 -311q-181 184 -291 350t-163 360t-53 445q0 389 172 708q100 188 315 410zM1855 2589q721 -432 721 -1332q0 -248 -64.5 -446t-205.5 -463q340 351 340 926q0 586 -324 1003q-217 280 -467 312zM836 25q9 1 26 2.5t31 1.5
q124 0 229.5 -34t286.5 -110l659 -270q316 -123 426 -123q58 0 97.5 15.5t54.5 25.5q-11 -1 -32.5 -2.5t-37.5 -1.5q-73 0 -144 20t-192 70.5t-135 56.5l-651 271q-157 63 -244.5 93t-185.5 30q-79 0 -125.5 -17t-62.5 -28z" />
    <glyph glyph-name="R" unicode="R" horiz-adv-x="2781" 
d="M565 528v1663q0 211 -74.5 308.5t-281.5 126.5q-94 20 -94 65q0 66 94 66q60 0 196.5 -14.5t225.5 -14.5q109 0 351 14.5t468 14.5q445 0 668 -172q117 -92 193.5 -244.5t76.5 -300.5q0 -213 -103.5 -374.5t-297.5 -244.5q-62 -30 -62 -61q0 -5 12 -41l353 -610
q151 -267 204 -340q118 -152 271 -152q12 0 52 6t54 6q18 0 29.5 -13.5t11.5 -27.5q0 -54 -127 -122q-144 -82 -336 -82q-177 0 -290 114q-174 167 -320 467l-135 275q-95 198 -180 323q-61 85 -129 112.5t-183 27.5q-116 0 -156 -21t-40 -115v-487q0 -169 16.5 -272
t84 -183t214.5 -106q111 -11 111 -62q0 -65 -45 -65q4 0 -163 12t-382 12q-126 0 -321 -18t-187 -18q-70 0 -70 57q0 23 17 37.5t42.5 22.5t47.5 14q184 58 184 417zM1016 2408v-729q0 -154 62.5 -195.5t215.5 -41.5h90h99q169 0 258 53q209 134 209 426q0 185 -89.5 345.5
t-244 253.5t-342.5 93q-258 0 -258 -205zM475 2585q37 -30 92.5 -111.5t55.5 -208.5v-1765q0 -146 -38.5 -232.5t-64.5 -115.5q43 16 107.5 93.5t64.5 250.5v1769q0 179 -81.5 245t-135.5 75zM1647 2580q154 -98 253 -279.5t99 -379.5q0 -190 -139 -393q217 139 217 397
q0 266 -148 471q-100 133 -282 184zM1479 1290q79 -65 155 -217l320 -606q118 -231 278 -365q81 -65 213 -65q-238 98 -426 463l-319 610q-53 102 -94 141t-127 39z" />
    <glyph glyph-name="S" unicode="S" horiz-adv-x="2023" 
d="M299 152l-8 57q-18 139 -74.5 368t-56.5 267q0 123 61 123q52 0 70 -90q35 -165 158.5 -349t294.5 -307t337 -123q132 0 253.5 63.5t194.5 173.5t73 243q0 170 -84 270.5t-252 187.5l-598 307q-439 225 -439 660q0 206 93 385t257 286t363 107q267 0 488 -106
q131 -62 167 -62q41 0 81 31t67 31q49 0 49 -62q0 -13 -2 -71t-2 -72q0 -136 26.5 -314t26.5 -202q0 -86 -45 -86q-43 0 -57.5 27.5t-24.5 78.5q-41 166 -155.5 322t-272.5 253t-325 97q-180 0 -309.5 -119.5t-129.5 -294.5q0 -244 328 -397l446 -213q578 -278 578 -811
q0 -222 -105 -421.5t-296.5 -321t-434.5 -121.5q-414 0 -741 205zM1319 2585q225 -155 381 -410q-16 154 -124 276t-257 134zM455 2503q-181 -217 -181 -492q0 -232 113 -377t322 -250l528 -266q426 -212 426 -483q0 -71 -14 -127t-23 -82q21 26 51.5 90.5t30.5 155.5
q0 161 -115 285t-286 206l-570 283q-178 87 -293.5 237.5t-115.5 360.5q0 113 30.5 215t96.5 244zM225 840q0 -65 14.5 -142.5t46 -212t42.5 -206.5q14 -119 65 -119q25 0 25 28q0 57 -30.5 164.5t-81.5 255t-81 232.5z" />
    <glyph glyph-name="T" unicode="T" horiz-adv-x="2662" 
d="M1122 598v1757q0 120 -46.5 150t-153.5 30q-440 0 -582 -102q-73 -52 -104 -133.5t-60 -218.5q-22 -111 -78 -111q-53 0 -53 111q13 105 27 244.5t27 242t28 152.5q12 37 49 37q-54 0 291 -14.5t852 -14.5q207 0 662.5 14.5t492.5 14.5q75 0 90.5 -42t24.5 -151
q2 -24 21.5 -162.5t19.5 -185.5q0 -115 -45 -115q-39 0 -56.5 19.5t-26 57t-12.5 46.5q-47 121 -109.5 185.5t-165 89t-286.5 24.5q-148 0 -220.5 -21.5t-104 -87t-31.5 -202.5v-1528q0 -518 401 -565q119 -9 119 -78q0 -31 -24 -48.5t-50 -17.5q-11 0 -114 14t-236 25
t-280 11q-163 0 -263 -9t-199 -22.5t-149 -13.5q-30 0 -51.5 16.5t-21.5 44.5q0 69 106 86q145 28 210.5 85t83 141.5t17.5 244.5zM131 2281q74 110 146 173.5t186 93.5q-9 0 -33 4t-33 4q-123 0 -194.5 -88t-71.5 -187zM1122 2535q15 -14 36.5 -55.5t21.5 -116.5v-1835
q0 -187 -54 -275t-90 -110q62 0 135.5 77t73.5 321v1822q0 107 -46 139.5t-77 32.5zM2183 2560q103 -8 169 -56t138 -145q-9 100 -69 163t-148 63q-37 0 -90 -25z" />
    <glyph glyph-name="U" unicode="U" horiz-adv-x="3252" 
d="M512 1143v962q0 181 -16 271.5t-86 151.5t-230 89q-98 27 -98 70q0 70 111 70q1 0 180 -16.5t336 -16.5q106 0 279 16.5t204 16.5q106 0 106 -62q0 -28 -14.5 -42.5t-39.5 -22t-48 -13.5q-150 -33 -191.5 -172t-41.5 -393v-586q0 -278 12 -413q8 -139 34.5 -264
t84.5 -233.5t159 -195.5q221 -192 586 -192q204 0 386.5 80t289.5 239q85 127 128 276.5t57 301.5t16 340l8 475v148q0 163 -25 286t-106.5 207t-241.5 100q-119 11 -119 86q0 50 58 50q20 0 222.5 -14.5t235.5 -14.5q56 0 206 14.5t171 14.5q20 0 39 -19t19 -39
q0 -36 -22.5 -49.5t-78.5 -31.5t-91.5 -47t-57.5 -93q-33 -94 -33 -536l-8 -541q-8 -505 -94 -737q-150 -414 -533 -603q-131 -66 -287.5 -90t-347.5 -24q-678 0 -946 393q-107 154 -139.5 347t-32.5 456zM455 2593q77 -101 97.5 -184.5t20.5 -213.5v-90v-1155
q0 -220 81 -426t255 -331q212 -152 480 -164q-189 58 -316.5 124t-224.5 179q-89 101 -134.5 231.5t-58 263.5t-12.5 312v1048q0 171 -31.5 266.5t-156.5 139.5zM2560 2609q99 -57 140.5 -156.5t68.5 -248.5q12 72 12 123q0 258 -221 282z" />
    <glyph glyph-name="V" unicode="V" horiz-adv-x="2810" 
d="M-33 2699q0 58 123 58q10 0 154.5 -14.5t279.5 -14.5q193 0 343 14.5t157 14.5q78 0 78 -50q0 -48 -27.5 -60t-95.5 -26q-127 -33 -127 -159q0 -79 21.5 -166t53.5 -172.5t64 -169.5q45 -117 148 -369.5t183 -446t116 -282.5q26 -71 65.5 -170.5t69.5 -99.5q14 0 28 21.5
t30 55t28 58.5q213 443 475 1118q120 300 135 447q0 153 -61 229q-48 56 -108.5 78t-149.5 37q-82 16 -82 73q0 54 98 54q34 0 183.5 -16.5t250.5 -16.5q87 0 240.5 16.5t157.5 16.5q65 0 65 -54q0 -39 -21.5 -52t-68.5 -25q-68 -21 -119 -70t-86 -110t-76 -164.5
t-47 -118.5l-352 -852q-73 -181 -175 -409.5t-216.5 -462.5t-202.5 -402q-33 -59 -51.5 -83t-54.5 -24q-42 0 -78 111q-47 120 -242 557q-369 828 -610 1483q-79 224 -164 363t-242 182q-90 26 -90 73zM217 2613q108 -102 156 -192t127 -291q263 -691 508 -1245l168 -389
q106 -246 163 -369q24 -57 45 -57q29 0 29 24q0 18 -37 123l-479 1081q-196 450 -344 856q-54 151 -84.5 226.5t-87.5 146.5q-79 86 -164 86zM2163 2609q91 -60 129.5 -118.5t38.5 -147.5q0 -11 -4.5 -42t-4.5 -40q54 74 54 143q0 92 -59.5 148.5t-153.5 56.5z" />
    <glyph glyph-name="W" unicode="W" horiz-adv-x="4022" 
d="M1942 1769l-136 406q-122 355 -307 430q-5 2 -46 16t-59 29t-18 41q0 66 103 66q30 0 191 -14.5t243 -14.5q200 0 318 14.5t145 14.5q86 0 86 -54q0 -40 -22 -51t-81 -26q-77 -19 -110 -78.5t-33 -126.5q0 -56 25 -123l536 -1507q34 -123 86 -123q23 0 65 84t79.5 179.5
t56.5 145.5q157 400 278 758q111 333 111 483q0 137 -70.5 212.5t-228.5 95.5q-90 9 -90 65q0 66 94 66q24 0 168 -16.5t233 -16.5q174 0 300.5 16.5t150.5 16.5q49 0 49 -45q0 -40 -23.5 -53.5t-74.5 -28.5q-159 -51 -250 -283l-217 -537q-100 -258 -127 -331
q-191 -501 -414 -1028q-8 -21 -44 -112t-79 -182t-86.5 -157t-77.5 -66q-60 0 -159 283l-443 1213q-9 45 -49 45q-21 0 -37.5 -19t-26.5 -43t-22 -53q-36 -82 -60 -139.5t-46 -102.5l-267 -573q-121 -267 -204 -426q-12 -26 -33 -71t-49.5 -79.5t-61.5 -34.5
q-44 0 -83.5 78.5t-59.5 143.5l-778 2154q-84 237 -226 295q-14 7 -44 19.5t-46 30t-16 48.5q0 54 98 54q26 0 178.5 -10.5t247.5 -10.5q141 0 282 10.5t161 10.5q86 0 86 -58q0 -40 -25.5 -49t-89.5 -20q-73 -9 -114.5 -54.5t-41.5 -101.5q0 -60 29 -147l512 -1467
q6 -17 29 -80.5t47 -104t47 -40.5q41 0 130 186.5t148 333.5l144 315q77 170 119 299zM160 2617q118 -118 180 -278l803 -2212q12 -61 49 -61q25 0 25 32q0 15 -5.5 30.5t-7.5 23.5l-803 2220q-38 106 -90 167.5t-151 77.5zM3387 2597q30 -22 74.5 -88t44.5 -174
q0 -8 -1.5 -32t-2.5 -38q14 17 35.5 55t21.5 88q0 119 -64.5 154t-107.5 35zM1626 2605q120 -114 180 -270l803 -2208q23 -61 53 -61q21 0 21 32q0 12 -5 29t-7 25l-803 2215q-37 104 -90 163t-152 75z" />
    <glyph glyph-name="X" unicode="X" horiz-adv-x="2978" 
d="M1204 1356l-684 962q-48 66 -164 164q-96 81 -241 123q-95 28 -95 78q0 29 19.5 51.5t46.5 22.5l165 -27t367 -27q184 0 382.5 27t203.5 27q78 0 78 -50q0 -58 -78 -81q-151 -35 -151 -152q0 -34 11.5 -63.5t39 -72t31.5 -48.5l356 -533q63 -94 94 -94q23 0 63 42t64 77
q74 93 197 251.5t172 231.5q78 116 78 193q0 75 -67.5 120.5t-162.5 51.5q-48 4 -73 16t-25 53q0 22 20 40t41 18q-3 0 172.5 -18.5t323.5 -18.5q81 0 258.5 18.5t187.5 18.5q95 0 95 -41q0 -42 -28.5 -57t-78.5 -25q-139 -22 -278 -148q-104 -93 -332 -340
q-49 -52 -145.5 -166t-197.5 -236t-124 -147q-53 -59 -53 -98q0 -40 73 -147l598 -799l66 -86q119 -161 226.5 -253t252.5 -112q107 -21 107 -73q0 -54 -62 -54q13 0 -227 18.5t-363 18.5q-102 0 -284.5 -9t-284.5 -15q-90 0 -90 49q0 40 57 61q172 43 172 156q0 63 -61 164
l-442 622q-18 26 -25 33q-23 41 -57 41q-20 0 -62 -49l-377 -442q-164 -195 -164 -316q0 -88 58 -141.5t155 -67.5q77 -7 110.5 -15t33.5 -50q0 -53 -82 -53q-35 0 -250.5 22.5t-290.5 22.5q-111 0 -271 -12.5t-155 -12.5q-20 0 -40.5 14t-20.5 35q0 30 16.5 44t44 19.5
t53.5 10.5q77 19 148 64t131 103t127 136t102 119q65 72 295 328t283 315q49 59 49 90q0 18 -37 78zM315 2576l45 -36q136 -103 185 -173l1392 -1953q45 -67 45 -168q0 -41 -40 -123q102 64 102 172q0 71 -53 156l-1393 1953q-96 138 -283 172zM2130 2613q78 -57 78 -127
q0 -103 -70 -209q135 96 135 213q0 56 -42 88t-101 35zM680 541q-176 -245 -414 -406q161 13 268 125t146 281z" />
    <glyph glyph-name="Y" unicode="Y" horiz-adv-x="2544" 
d="M938 1364l-475 893q-84 158 -171.5 241.5t-238.5 114.5q-94 18 -94 82q0 62 61 62q12 0 208 -18.5t427 -18.5q144 0 219 7.5t130.5 18.5t72.5 11q70 0 70 -58q0 -56 -98 -73q-45 -9 -84 -46.5t-39 -76.5q0 -93 37 -160l430 -823q37 -78 73 -78q41 0 119 155
q165 282 265 478t100 325q0 101 -77 158.5t-185 71.5q-52 9 -79.5 22t-27.5 51q0 54 74 54q33 0 170 -16.5t293 -16.5q131 0 260.5 16.5t124.5 16.5q82 0 82 -58q0 -52 -86 -69q-109 -23 -193.5 -102.5t-133.5 -160.5t-140 -249q-3 0 -303 -574q-145 -239 -177 -327
q-24 -79 -24 -205v-508q0 -176 77 -271.5t250 -113.5q86 -13 125 -24.5t39 -53.5q0 -61 -102 -61q13 0 -222 20t-405 20q-194 0 -396 -20t-198 -20q-65 0 -65 53q0 62 98 82q348 54 348 409v377q0 194 -139 463zM283 2589q118 -99 229 -308l516 -987q59 -113 83 -199
t24 -206v-385q0 -146 -52.5 -236t-87.5 -121q52 3 130.5 71t78.5 278v401q0 131 -27 220.5t-96 225.5l-508 963q-64 125 -123.5 193.5t-166.5 89.5zM1888 2617q123 -107 123 -217v-49q10 11 25.5 41.5t15.5 81.5q0 63 -44.5 103t-119.5 40z" />
    <glyph glyph-name="Z" unicode="Z" horiz-adv-x="2159" 
d="M1614 1921l-561 -1069q-44 -88 -193 -365q-8 -13 -31.5 -52.5t-37 -65t-27.5 -65.5t-14 -66q0 -58 225 -58q467 0 683 122.5t296 254.5q73 135 102 135q33 0 33 -41q0 -228 -135 -438q-152 -238 -455 -238q-104 0 -357.5 27t-400.5 27q-116 0 -379.5 -18.5t-250.5 -18.5
q-33 0 -33 37q0 14 124.5 224.5t149.5 258.5l770 1425q242 446 242 545q0 78 -430 78q-153 0 -280 -24t-224 -98.5t-123 -209.5q-6 -31 -13.5 -68t-26 -64.5t-50.5 -27.5q-49 0 -49 86q0 50 26.5 193.5t26.5 253.5q0 92 20.5 124t73.5 32q38 0 201.5 -14.5t347.5 -14.5
l553 -4q93 0 301 16.5t224 16.5q86 0 86 -45q0 -65 -218 -418q-78 -143 -196 -373zM295 2343q86 169 291 225q-55 17 -66 17q-78 0 -151.5 -54.5t-73.5 -187.5zM1167 1929l-790 -1487q-4 -8 -90 -157t-86 -179q0 -28 24 -28t95 127.5t114 212.5l897 1687q24 45 88 195.5
t64 173.5q0 33 -25 33t-41 -41q-89 -239 -250 -537zM1937 467q-141 -152 -298 -222.5t-386 -97.5q98 -28 213 -28q143 0 288.5 99t182.5 249z" />
    <glyph glyph-name="bracketleft" unicode="[" horiz-adv-x="1188" 
d="M651 2474v-2580q0 -168 34 -260.5t167 -92.5h70q86 0 86 -57q0 -66 -95 -66q-3 0 -91 10.5t-179 10.5q-52 0 -142.5 -8.5t-135.5 -8.5q-47 0 -60.5 25.5t-13.5 97.5v3105q0 33 -2 97t-2 87q0 103 82 103q18 0 107 -10.5t138 -10.5q55 0 168 8.5t131 8.5q103 0 103 -70
q-4 -61 -131 -61q-110 0 -159.5 -31.5t-62 -95.5t-12.5 -201zM406 2703q0 62 -33 62q-29 0 -29 -41v-3117q0 -41 29 -41q33 0 33 49v3088z" />
    <glyph glyph-name="backslash" unicode="\" horiz-adv-x="1663" 
d="M250 2830l1413 -3211q8 -16 8 -37q0 -41 -82 -41q-47 0 -68.5 17.5t-41.5 64.5l-1393 3207q-1 4 -8.5 15.5t-7.5 21.5q0 33 57 33q94 0 123 -70z" />
    <glyph glyph-name="bracketright" unicode="]" horiz-adv-x="1188" 
d="M897 2626v-3064q0 -10 4 -35t4 -39q0 -66 -74 -66q-9 0 -107 8.5t-171 8.5q-83 0 -175 -10.5t-99 -10.5q-91 0 -91 66q0 57 86 57h66q126 0 161.5 83.5t35.5 269.5v2580v115q0 120 -42.5 166.5t-195.5 46.5q-119 0 -119 61q0 70 103 70q20 0 137 -8.5t158 -8.5
q47 0 132 10.5t117 10.5q74 0 74 -103q0 -39 -2 -108t-2 -100zM545 2765q45 -99 45 -316v-2584q0 -217 -86 -299q95 30 121 101.5t26 197.5v2527q0 160 -19 246.5t-87 126.5z" />
    <glyph glyph-name="asciicircum" unicode="^" horiz-adv-x="2048" 
d="M2159 1159h-201l-754 1172l-786 -1172h-529l1155 1708h29z" />
    <glyph glyph-name="underscore" unicode="_" horiz-adv-x="2048" 
d="M-41 -369h2130v-229h-2130v229z" />
    <glyph glyph-name="quoteleft" unicode="&#x2018;" horiz-adv-x="1036" 
d="M819 2052l-217 -229q-25 -33 -65 -33q-110 0 -198.5 140.5t-88.5 256.5q0 367 332 684q148 148 217 148q19 0 34 -15t15 -34q0 -23 -37 -62q-217 -184 -217 -364q0 -101 46.5 -163.5t162.5 -164.5q57 -60 57 -74q0 -41 -41 -90zM766 2970q-131 -92 -235 -207.5
t-168 -256.5t-64 -286q0 -171 111 -307q11 -15 24.5 -32.5t28 -29.5t29.5 -12q40 0 40 25q-8 25 -24 37q-143 150 -143 319q0 193 98 361.5t266 347.5z" />
    <glyph glyph-name="a" unicode="a" horiz-adv-x="1827" 
d="M1544 1176v-644q0 -132 28.5 -219.5t123.5 -87.5q29 0 72 16.5t59 16.5q45 0 45 -57q0 -45 -66.5 -94.5t-155 -84t-147.5 -34.5q-184 0 -282 159q-35 66 -50 66t-48.5 -24.5t-53.5 -41.5q-123 -76 -173.5 -104.5t-134.5 -50t-204 -21.5q-180 0 -268 118.5t-88 283.5
q0 207 148 344.5t413 200.5l323 77q46 10 58 36t12 99q0 229 -90 349q-110 139 -258 139q-180 0 -180 -172q0 -10 2 -54t2 -57q0 -62 -104.5 -98.5t-182.5 -36.5q-115 0 -115 115q0 63 49.5 145.5t122.5 136.5q198 148 541 148q320 0 483 -172q119 -129 119 -397zM1147 414
v352q0 123 -70 123q-146 0 -311 -131q-152 -116 -152 -316q0 -134 73.5 -191.5t168.5 -57.5q115 0 203 65t88 156zM1417 70q-94 82 -127 167t-33 222v680q0 179 -40 281.5t-181 164.5q93 -106 126.5 -197t33.5 -233v-676q0 -181 37 -275.5t184 -133.5zM537 774
q-142 -46 -214.5 -157.5t-72.5 -251.5q0 -132 63 -236t207 -104q23 0 45.5 1.5t32.5 2.5q-132 35 -203 103.5t-71 195.5q0 289 213 446zM475 1577q-78 -27 -133 -105t-55 -161q0 -49 32 -49q37 0 37 57q15 158 119 258z" />
    <glyph glyph-name="b" unicode="b" horiz-adv-x="2032" 
d="M283 455v1765q0 177 -35.5 273t-161.5 96q-31 0 -56.5 17t-25.5 40q0 74 102 74q99 0 200.5 45t203 108.5t113.5 63.5q35 0 44 -40.5t9 -143.5v-1262q0 -53 20 -53q30 0 58 37q224 270 536 270q209 0 350.5 -108t209 -286t67.5 -384q0 -482 -279 -750
q-248 -242 -594 -242q-166 0 -260.5 33.5t-182 86t-130.5 52.5q-21 0 -85 -96t-91 -96q-45 0 -45 70q0 2 16.5 166.5t16.5 263.5zM676 1184v-586q0 -196 94 -315q148 -189 369 -189q227 0 336.5 187.5t109.5 431.5q0 179 -59.5 354.5t-184.5 289t-313 113.5
q-141 0 -245 -74.5t-107 -211.5zM319 111q74 119 74 348v1782q0 220 -47 287.5t-117 76.5q57 -72 80 -153.5t23 -301.5v-1835q0 -41 -5 -103t-8 -101zM1208 1491q196 -69 312 -274q122 -235 122 -512q0 -209 -114 -439q97 111 131 234q41 142 41 282q0 150 -67.5 325.5
t-170.5 276.5q-94 101 -254 107z" />
    <glyph glyph-name="c" unicode="c" horiz-adv-x="1642" 
d="M524 1024q0 -328 158.5 -563.5t493.5 -235.5q99 0 162.5 29t132 78t94.5 49q37 0 37 -49q0 -25 -14.5 -50.5t-36 -47t-51.5 -46.5t-50 -41q-235 -176 -520 -176q-230 0 -416 99.5t-292.5 280.5t-106.5 411q0 249 114 474.5t336 365t525 139.5t438 -160q82 -89 82 -201
q0 -42 -61 -96t-138.5 -93.5t-120.5 -39.5q-45 0 -45 74q0 80 -48.5 169.5t-129.5 148.5t-174 59q-80 0 -148.5 -47.5t-117.5 -120.5q-103 -149 -103 -410zM594 1556q-141 -77 -239 -205t-146.5 -284t-48.5 -317q0 -215 97 -372t234.5 -237t253.5 -80q-225 88 -368.5 266.5
t-143.5 405.5q0 239 70 413t234 345zM1114 1577q145 -139 180 -291q14 -41 33 -41q29 0 29 33q0 74 -58 164q-68 98 -184 135z" />
    <glyph glyph-name="d" unicode="d" horiz-adv-x="2130" 
d="M1798 2830v-2330q0 -120 31.5 -176.5t74 -69t132.5 -21.5q78 -8 78 -57t-50.5 -62t-138.5 -20q-150 -11 -254.5 -37.5t-170 -56t-62.5 -29.5q-41 0 -41 78v221q-13 0 -42 -24t-32 -25q-52 -62 -187.5 -156t-324.5 -94q-283 0 -496 213q-200 207 -200 586q0 255 114 479.5
t326 358t489 133.5q87 0 145.5 -15.5t108.5 -39t62 -23.5q41 0 41 90v565q0 263 -246 283q-70 0 -70 45q0 60 86 70q157 18 282.5 65.5t219.5 101.5t96 54q29 0 29 -107zM1401 410v782q0 169 -123 274q-171 140 -377 140q-177 0 -275 -96t-130.5 -223t-32.5 -251
q0 -315 143 -540q75 -112 199.5 -179t255.5 -67q219 0 340 160zM1327 2605q123 -141 123 -328v-2187q0 -33 41 -33q20 17 20 70v2146q0 280 -184 332zM442 1450q-155 -146 -214.5 -318.5t-59.5 -414.5q0 -160 67.5 -318.5t199.5 -262t306 -103.5q21 0 36.5 1.5t21.5 2.5
q-216 54 -328 139q-113 93 -177.5 243.5t-64.5 301.5q0 420 213 729z" />
    <glyph glyph-name="e" unicode="e" horiz-adv-x="1716" 
d="M520 991q0 -251 86 -430q71 -146 207 -237t293 -91q146 0 240.5 44t173.5 106.5t102 62.5q33 0 33 -28q0 -74 -123 -180q-267 -267 -635 -267q-331 0 -553 222q-229 228 -229 626q0 223 101 437.5t285 351.5t421 137q197 0 365 -107t266 -263t98 -285q0 -99 -82 -99
h-1049zM545 1110h483q97 0 147 25.5t50 97.5q0 114 -100 259.5t-277 145.5q-143 0 -236.5 -140.5t-103.5 -305.5q0 -82 37 -82zM1061 1622q225 -177 225 -434q0 -58 29 -58q37 0 37 66q0 128 -80 253t-211 173zM459 1507q-158 -124 -228.5 -313.5t-70.5 -386.5
q0 -242 106.5 -431.5t286.5 -277.5q117 -61 328 -61q-159 35 -266.5 83t-192.5 142q-122 136 -159.5 300.5t-37.5 281.5q0 207 67.5 363.5t166.5 299.5z" />
    <glyph glyph-name="f" unicode="f" horiz-adv-x="1298" 
d="M66 1458l36 189h189q54 0 66 31.5t12 115.5q9 241 90 454.5t241 377.5q109 112 271.5 201t298.5 89q61 0 149 -54t88 -97q0 -46 -38 -131t-85 -153t-73 -68q-21 0 -62 53q-130 192 -254 192q-241 0 -241 -692v-119q0 -27 -2 -65t-2 -49q0 -50 22 -68t92 -18h107
q134 0 200 53q10 11 28 28t30 17q33 0 33 -45q-13 -44 -13 -41l-53 -176q-7 -37 -53 -37h-336q-34 0 -43.5 -24.5t-9.5 -102.5v-827q0 -184 55.5 -277t226.5 -117q86 -8 86 -61q0 -57 -90 -57q-16 0 -192 20t-279 20q-62 0 -195 -14t-145 -14q-45 0 -45 53q0 34 66 61
q72 30 95 102.5t23 205.5v938q0 73 -14.5 89.5t-54.5 16.5h-225zM1106 2675q105 -62 176 -164l21 -21q8 0 18 13.5t10 19.5q0 21 -57 78q-66 74 -131 74h-37zM655 2494q-245 -216 -245 -757v-1262q0 -169 -18.5 -227.5t-59.5 -116.5q86 16 114 123q25 77 25 250v1245
q0 227 41 393t143 352z" />
    <glyph glyph-name="g" unicode="g" horiz-adv-x="1819" 
d="M1622 1257q0 -9 2 -33t2 -36q0 -169 -90.5 -299t-237.5 -200.5t-307 -70.5q-114 0 -230.5 16.5t-121.5 16.5q-62 0 -104.5 -38t-42.5 -89q0 -92 61 -140t221 -48q46 0 237 8t230 8q504 0 504 -336q0 -131 -61 -251t-164 -195q-222 -164 -607 -164q-299 0 -542.5 70.5
t-243.5 273.5q0 207 348 254q-217 132 -217 299q0 227 238 385q4 4 12.5 9t15.5 12q-146 68 -230.5 195.5t-84.5 287.5q0 171 100 295t257 187t327 63q171 0 298 -37t259 -131q95 14 156 45q83 38 118 151q14 48 23 65t47 17q12 0 22.5 -11.5t10.5 -25.5q0 -18 -24.5 -175
t-24.5 -185q0 -58 -33 -99t-71.5 -63.5t-51.5 -30.5zM1229 1188q0 101 -37 206t-111 174.5t-176 69.5q-154 0 -230.5 -138t-76.5 -308q0 -177 76.5 -324t238.5 -147q167 0 241.5 140t74.5 327zM1118 1610q148 -188 164 -414q0 -254 -111 -401q160 127 160 376
q0 302 -213 439zM1683 1597q-95 -65 -167 -69q6 -53 57 -53q50 0 110 122zM623 1647q-152 -40 -258.5 -166.5t-106.5 -296.5q0 -146 83.5 -274t236.5 -160q-259 142 -259 467q0 240 304 430zM385 516q-70 -89 -70 -188q0 -146 101 -221t240 -98t294 -25l221 -4
q304 -10 304 -213q0 -14 -3.5 -26.5t-5.5 -19.5q7 12 18 36.5t11 54.5q0 145 -123.5 185t-306.5 40q-336 0 -512 57q-81 26 -135 92.5t-62 153.5q0 73 29 176zM672 -45q-234 0 -234 -164q0 -149 162.5 -218t329.5 -69q238 0 385 103q102 71 102 164q0 159 -299 159
q-56 0 -238.5 12.5t-207.5 12.5zM340 -78q-168 -57 -168 -180q0 -138 205 -201q-144 93 -144 197q0 112 107 184z" />
    <glyph glyph-name="h" unicode="h" horiz-adv-x="2212" 
d="M762 2560v-1049q0 -106 29 -106q15 0 34.5 23t22.5 26q240 287 512 287q143 0 273.5 -73t197.5 -198q63 -113 80.5 -231t17.5 -305v-344v-115q0 -160 42.5 -251.5t182.5 -117.5q53 -11 78 -22t25 -51q0 -49 -86 -49q-1 0 -134 14t-268 14q-29 0 -197 -12t-179 -12
q-66 0 -66 41q0 46 29 53q112 28 140 122.5t28 262.5v311q0 326 -78.5 521.5t-343.5 195.5q-82 0 -161.5 -50.5t-129 -132.5t-49.5 -169v-721q0 -144 67.5 -210.5t219.5 -100.5q73 -18 73 -70q0 -49 -49 -49q9 0 -173 10t-339 10q-48 0 -186 -10t-146 -10q-65 0 -65 49
q0 38 53 57q152 56 152 287v1958q0 241 -185 262q-69 9 -69 53q0 54 78 62q146 20 261.5 66t205.5 98.5t98 52.5q33 0 33 -41q0 -7 -14.5 -136t-14.5 -200zM1319 1491q154 -87 204 -243.5t50 -379.5v-495q0 -141 -66 -246q127 71 127 233v508q0 334 -94 480
q-71 109 -221 143zM356 143q71 43 97 106.5t26 160.5v1945q0 213 -164 258q103 -86 103 -254v-1949q0 -149 -62 -267z" />
    <glyph glyph-name="i" unicode="i" horiz-adv-x="1090" 
d="M750 1602v-1127q0 -122 28.5 -195t84 -109.5t145.5 -55.5q90 -22 90 -54q0 -61 -66 -61q16 0 -153.5 12.5t-305.5 12.5q-101 0 -225 -14.5t-135 -14.5q-66 0 -66 45q0 32 41 53q100 54 132 134t32 210v742q0 124 -39.5 177t-156.5 68q-78 11 -78 62q0 56 74 65
q169 22 284 69.5t197 102t92 54.5q33 0 33 -37q0 -6 -4 -56t-4 -83zM537 2081q-43 0 -155 130t-112 177q0 45 119.5 186.5t155.5 141.5q31 0 94.5 -65t119.5 -145t56 -106q0 -48 -115.5 -183.5t-162.5 -135.5zM287 1454q75 -50 97 -122t22 -181v-86v-520q0 -276 -91 -406
q152 72 152 279q0 21 -2 63t-2 60v532v107q0 252 -176 274zM512 2626l-152 -189q-28 -28 -28 -45q0 -26 20 -53l160 -176q0 -13 20 -13q33 0 33 25q0 21 -24 37l-119 135q-21 21 -21 33q0 20 13 41l135 159q20 23 20 33q0 29 -24 29q-22 0 -33 -16z" />
    <glyph glyph-name="j" unicode="j" horiz-adv-x="1036" 
d="M819 1495v-1118q0 -271 -74 -422q-52 -115 -142 -245.5t-203 -221t-228 -90.5q-106 0 -180 45.5t-74 126.5q0 104 29 218t73 114q35 0 65 -31.5t75 -94.5t80 -95.5t79 -32.5q107 0 107 364v1082q0 164 -40.5 242t-188.5 81q-78 0 -78 53q0 36 29 54t68.5 26t78.5 15
q229 45 450 188q30 21 54 21q32 0 32 -45q0 -4 -6 -108t-6 -126zM537 2081q-43 0 -155 130t-112 177q0 45 119.5 186.5t155.5 141.5q31 0 94.5 -65t119.5 -145t56 -106q0 -48 -115.5 -183.5t-162.5 -135.5zM70 -193q0 8 -9.5 16.5t-15.5 8.5q-27 0 -41.5 -45t-21.5 -101.5
t-11 -91.5q0 -73 33 -73q14 0 15.5 3t5.5 25q45 191 45 258zM377 1430q98 -123 98 -328v-1065q0 -170 -20 -275q82 106 82 254v1082q0 100 -33 209q-26 82 -127 123zM512 2626l-152 -189q-28 -28 -28 -45q0 -26 20 -53l160 -176q0 -13 20 -13q33 0 33 25q0 21 -24 37
l-119 135q-21 21 -21 33q0 20 13 41l135 159q20 23 20 33q0 29 -24 29q-22 0 -33 -16z" />
    <glyph glyph-name="k" unicode="k" horiz-adv-x="2048" 
d="M709 2572v-1601q0 -49 32 -49q18 0 38 16t47.5 44.5t33.5 33.5q137 125 180 164q61 52 155.5 180.5t94.5 183.5q0 33 -30 59t-72 35q-78 19 -78 66q0 41 74 41q-16 0 99 -8t286 -8q81 0 189 8t118 8q78 0 78 -41q0 -54 -82 -78q-96 -26 -195.5 -88.5t-241.5 -179
t-153 -125.5q-52 -40 -73 -61t-21 -50q0 -89 180 -327q171 -249 365 -488q112 -143 233 -176q69 -19 104 -36.5t35 -57.5q0 -57 -73 -57q-13 0 -126 12t-124 12q-26 0 -131 -6t-123 -6q-92 0 -148 61q-101 126 -196 266q-171 235 -287 414q-42 74 -66 74q-22 0 -55.5 -27
t-46.5 -47q-16 -33 -16 -123v-188q0 -156 57 -217q60 -61 229 -107q66 -21 66 -69q0 -49 -74 -49l-74 10.5t-166.5 18t-193.5 7.5q-89 0 -222 -12t-159 -12q-70 0 -70 49q0 33 70 74q90 49 114.5 131t24.5 209v1888q0 215 -168 242q-21 4 -43.5 8.5t-36.5 14t-14 30.5
q0 56 90 74q173 29 277.5 75t184 98t104.5 52q36 0 36 -58q-36 -216 -36 -307zM303 143q71 43 97 106.5t26 160.5v1937q0 214 -164 254q103 -87 103 -250v-1941q0 -149 -62 -267zM1294 1638q49 -48 49 -102q0 -25 -12 -61q70 38 70 90q0 37 -33.5 55t-73.5 18zM930 885
q-29 0 -29 -21q0 -60 250 -401q32 -46 102.5 -147.5t138 -182t99.5 -80.5q33 0 33 25q0 10 -29 41q-186 232 -291 389l-229 336q-27 41 -45 41z" />
    <glyph glyph-name="l" unicode="l" horiz-adv-x="1036" 
d="M713 2617v-2203q0 -125 61.5 -207t183.5 -96q111 -12 111 -62q0 -29 -18 -45t-39 -16q-12 0 -165 14t-274 14q-139 0 -259 -10t-121 -10q-82 0 -82 49q0 54 65 78q88 39 113.5 107.5t25.5 187.5v1949q0 118 -51 172.5t-166 73.5q-61 17 -61 45q0 22 14 36t32 20t43 10.5
t38 7.5q275 49 459 176q34 29 69 29q37 0 37 -70q0 -20 -8 -114t-8 -136zM307 143q119 75 119 267v1945q0 215 -160 254q103 -86 103 -250v-1949q0 -137 -62 -267z" />
    <glyph glyph-name="m" unicode="m" horiz-adv-x="3305" 
d="M373 373v770q0 126 -29 202t-135 89q-54 5 -76 13t-22 48q0 59 102 74q143 20 247.5 64.5t184.5 94.5t96 50q33 0 33 -70v-180q0 -90 37 -90q9 0 57.5 58.5t103 110t148 95t211.5 43.5q139 0 263 -73.5t188 -205.5q15 -45 49 -45q22 0 61 49q90 122 228 198.5t280 76.5
q294 0 455 -209q82 -103 106.5 -232.5t24.5 -312.5v-528q0 -154 46.5 -245t182.5 -107q111 -12 111 -70q0 -57 -78 -57q1 0 -134 14t-292 14q-109 0 -244 -10t-129 -10q-44 0 -53 45q0 54 33 65q85 32 124.5 75.5t39.5 154.5v602q0 557 -393 557q-178 0 -249 -94t-71 -262
v-680q0 -309 229 -344q62 -12 86.5 -20.5t24.5 -45.5q0 -53 -61 -53q3 0 -169 12t-249 12q-65 0 -221 -12t-160 -12q-74 0 -74 53q0 44 33 57q92 34 128 85t36 173v627q0 132 -38.5 248t-124.5 188t-218 72q-94 0 -181.5 -66.5t-125.5 -158.5q-25 -74 -25 -189v-643
q0 -263 246 -315q94 -17 94 -66q0 -65 -70 -65q9 0 -129.5 18.5t-324.5 18.5q-128 0 -246 -14.5t-107 -14.5q-19 0 -38 18t-19 31q0 48 33 62q164 57 164 262zM1241 1520q295 -97 295 -537v-631q0 -136 -74 -225q131 44 131 213v676q0 243 -110 381q-74 93 -242 123z
M311 1458q29 -17 72 -78.5t43 -179.5v-651q0 -143 -13.5 -234t-72.5 -176q147 79 147 312v753q0 157 -66 205t-110 49zM2347 1520q295 -97 295 -537v-631q0 -94 -27.5 -149.5t-46.5 -75.5q34 7 84.5 53t50.5 160v676q0 244 -114 381q-74 93 -242 123z" />
    <glyph glyph-name="n" unicode="n" horiz-adv-x="2253" 
d="M360 373v778q0 129 -36.5 196t-151.5 78q-82 12 -82 58q0 56 86 73q174 34 282.5 79.5t184 92t94.5 46.5q29 0 29 -50v-225q0 -69 25 -69q29 0 45 28q93 121 226 204t265 83q154 0 286.5 -76.5t205.5 -210.5q90 -157 90 -418v-610q0 -297 229 -328q60 -11 89.5 -22.5
t29.5 -54.5q0 -50 -62 -50q-1 0 -150.5 16.5t-279.5 16.5q-97 0 -237 -12t-139 -12q-70 0 -70 45q0 49 37 61q102 41 128.5 98t26.5 148v668q0 133 -46 245t-140.5 181t-230.5 69q-142 0 -241 -117.5t-99 -267.5v-668q0 -306 233 -331q131 -11 131 -62q0 -69 -61 -69
q-8 0 -78 10.5t-170.5 18t-247.5 7.5q-110 0 -229 -12t-111 -12q-65 0 -65 53q0 35 77 66q127 53 127 258zM295 1450q72 -51 93.5 -121t21.5 -178v-86v-520q0 -149 -13.5 -235.5t-72.5 -174.5q87 42 117 116t30 191v746q0 247 -176 262zM1270 1511q295 -101 295 -536v-643
q0 -135 -74 -226q135 45 135 213v689q0 243 -115 381q-67 85 -241 122z" />
    <glyph glyph-name="o" unicode="o" horiz-adv-x="2052" 
d="M1937 897q0 -194 -75 -371.5t-215 -308.5q-265 -246 -656 -246q-249 0 -449.5 102.5t-313.5 293.5t-113 440q0 241 115.5 458t323.5 348.5t470 131.5q232 0 442 -101t340.5 -294.5t130.5 -452.5zM954 1622q-207 0 -331 -180q-103 -144 -103 -402q0 -381 176 -667
q75 -123 186.5 -205t239.5 -82q213 0 319.5 169.5t106.5 395.5q0 240 -80.5 464.5t-218 365.5t-295.5 141zM1114 1638q151 -81 258 -228t162 -324.5t63 -356.5q0 -293 -127 -516q181 160 181 512q0 317 -176 618q-146 244 -361 295zM573 1552q-193 -111 -303 -308t-110 -425
q0 -337 188 -549q93 -108 218.5 -172.5t252.5 -64.5h94q-324 79 -467 213q-108 106 -166.5 261.5t-58.5 311.5q0 440 352 733z" />
    <glyph glyph-name="p" unicode="p" horiz-adv-x="2134" 
d="M340 -53v1196q0 295 -152 295q-110 0 -110 49q0 72 110 82q169 23 264.5 64t171.5 93t109 52q29 0 29 -103v-119q0 -98 29 -98t57 37q102 111 235.5 180.5t268.5 69.5q287 0 483 -221q188 -211 188 -582q0 -262 -105 -486.5t-304 -358.5t-463 -134q-86 0 -163 15.5
t-138 35t-64 19.5q-57 0 -57 -131q0 -27 2 -62t2 -37q0 -260 234 -266q56 -5 81 -15t25 -59t-74 -49q21 0 -121 10.5t-321 10.5q-140 0 -247.5 -8.5t-96.5 -8.5q-74 0 -74 50q0 54 70 77q99 41 119 156q12 82 12 246zM299 1450q90 -90 90 -242v-1355q0 -172 -65 -291
q127 61 127 278v1364q0 107 -29 165.5t-123 80.5zM733 1196v-741q0 -108 79.5 -190t196.5 -126.5t220 -44.5q234 0 346.5 160t112.5 405q0 196 -72 380t-211.5 299.5t-331.5 115.5q-77 0 -157 -33t-131.5 -92t-51.5 -133zM1225 1503q161 -43 277.5 -168.5t175.5 -294
t59 -340.5q0 -179 -70 -372q75 79 101 179t26 238q0 170 -63 347.5t-175 279.5q-136 125 -331 131z" />
    <glyph glyph-name="q" unicode="q" horiz-adv-x="2048" 
d="M1790 1290v-1487q0 -210 131 -266q42 -18 58 -29t16 -45q0 -15 -17.5 -30t-35.5 -15q-23 0 -160 8.5t-279 8.5q-202 0 -344 -21q-115 0 -119 54q0 56 82 65q271 37 271 311v275q0 82 -25 82q-15 0 -94.5 -71t-193 -123t-289.5 -52q-208 0 -361.5 103t-234 276t-80.5 379
q0 263 112.5 502t322.5 384.5t490 145.5q214 0 455 -139q25 -16 65 -41t46 -25q9 0 79 117t105 117q12 0 22.5 -14t10.5 -27l-16.5 -171t-16.5 -272zM1257 1532q46 -33 115.5 -117t69.5 -207v-1331q0 -81 -8 -129t-32 -93t-75 -97q104 41 140 111t36 188v1319
q0 144 -55 222.5t-191 133.5zM1393 471v737q0 114 -119 242q-174 172 -324 172q-223 0 -340.5 -172.5t-117.5 -470.5q0 -186 64 -366t194.5 -296t314.5 -116q198 0 283 102q45 54 45 168zM475 1479q-152 -120 -235.5 -334t-83.5 -424q0 -221 87 -384t215 -246t247 -83
q16 0 39 2t38 2q-147 45 -228.5 82.5t-147.5 114.5q-181 205 -181 500q0 237 54 376q87 241 196 394z" />
    <glyph glyph-name="r" unicode="r" horiz-adv-x="1544" 
d="M762 1028v-553q0 -162 54 -250.5t204 -118.5q94 -17 94 -69q0 -47 -57 -57q8 0 -194 20t-290 20q-58 0 -211 -12t-157 -12q-17 0 -37.5 13.5t-20.5 31.5q0 25 13.5 40t34.5 24t43 18q127 49 127 270v819q0 104 -31.5 161t-124.5 65q-103 10 -103 61q0 41 27.5 52t87.5 22
q160 29 257 69.5t175.5 86t96.5 45.5q32 0 32 -41q0 -10 -4.5 -117.5t-7.5 -177.5q0 -70 33 -70q5 0 33 37q59 118 159.5 229t196.5 111q39 0 125.5 -48.5t156.5 -109.5t70 -96t-40 -122.5t-90 -160.5t-79 -73q-18 0 -75.5 54t-115.5 90t-136 36q-125 0 -185.5 -79.5
t-60.5 -207.5zM991 1372q73 0 144 -34t130 -77.5t62 -43.5q29 0 29 32q0 48 -100.5 94t-170.5 46q-18 0 -51 -7.5t-43 -9.5zM299 1454q76 -53 97.5 -138t21.5 -251v-520q0 -144 -14.5 -234.5t-75.5 -171.5q89 55 118 120t29 159v110v566q0 178 -32 261t-144 99z" />
    <glyph glyph-name="s" unicode="s" horiz-adv-x="1450" 
d="M1323 565q0 -175 -76.5 -311t-214 -209.5t-311.5 -73.5q-149 0 -222.5 19.5t-151.5 51.5t-130 32q-49 0 -49 20q0 -3 6 76t6 154q0 39 -4 131t-4 131q0 82 49 82q43 0 74 -82q71 -216 168 -360t262 -144q121 0 204 80t83 198q0 136 -95 203t-266 125q-463 174 -463 541
q0 142 73.5 261t207 187t305.5 68q190 0 310 -43t120 -113q0 -75 8.5 -163.5t8.5 -94.5q0 -82 -37 -82q-19 0 -33.5 16t-42 61.5t-35.5 57.5q-172 254 -389 254q-101 0 -163 -57t-62 -143q0 -114 102 -185q70 -47 328 -155q204 -86 319 -210t115 -323zM905 1630
q111 -71 201 -200q8 -9 24 -33q-16 102 -72.5 167.5t-152.5 65.5zM340 1528q-107 -123 -107 -311q0 -291 381 -447q148 -63 233 -105.5t151.5 -111.5t66.5 -164q0 -37 -11 -80t-18 -67q18 17 44 62t26 110q0 84 -44 149t-110.5 108.5t-118.5 66t-186 77.5q-257 111 -319 254
q-49 114 -49 225q0 92 61 234zM225 524q8 -114 8 -176q0 -54 -2 -111t-2 -61q0 -53 29 -53q37 0 37 61q0 67 -20.5 170.5t-49.5 169.5z" />
    <glyph glyph-name="t" unicode="t" horiz-adv-x="1225" 
d="M684 1479v-967q0 -155 41.5 -235t183.5 -80q105 0 199 49t104 49q37 0 37 -41q0 -43 -86 -119q-193 -164 -483 -164q-175 0 -284 102t-109 275v1131h-148q-86 0 -86 45t70 90q211 148 434 459q13 21 29 47.5t31.5 44.5t29.5 18q25 0 31 -23.5t6 -107.5v-364
q30 -4 97.5 -10.5t144.5 -6.5q86 0 125 20.5t67.5 51.5t48.5 31q33 0 33 -41q0 -13 -6.5 -37t-20.5 -72.5t-18 -62.5q-11 -54 -27 -68t-51 -14h-393zM377 1757q-61 -61 -124 -108.5t-93 -67.5q142 24 263.5 136t121.5 249q-1 -1 -71.5 -92t-96.5 -117zM397 1483h-61v-1139
q0 -147 89.5 -230t238.5 -94q-154 66 -210.5 138.5t-56.5 234.5v1090z" />
    <glyph glyph-name="u" unicode="u" horiz-adv-x="2146" 
d="M1823 1470v-1069q0 -135 44.5 -196.5t168.5 -61.5q102 0 102 -53q0 -42 -33.5 -56t-117.5 -14q-188 0 -376.5 -24.5t-160.5 -24.5q-29 0 -29 78l-4 135q0 41 -20 41q-16 0 -63 -52t-105 -100.5t-156.5 -87t-232.5 -38.5q-142 0 -276.5 67t-203.5 187q-69 129 -69 377v675
q0 106 -30.5 166.5t-125.5 63.5q-94 9 -94 65q0 62 106 62q177 7 287 36.5t186.5 66t88.5 36.5q28 0 28 -33q0 10 -18.5 -99t-18.5 -269v-656q0 -212 62 -319q45 -83 135 -131.5t193 -48.5q165 0 266 126q69 84 69 259v679q0 104 -29 157.5t-122 64.5q-61 6 -88 14.5
t-27 50.5q0 32 46 47t89 15q126 5 235.5 33.5t192 63t80.5 34.5q33 0 33 -54q0 -7 -6 -96t-6 -117zM1417 1466q62 -38 62 -86v-1253q0 -82 32 -82q29 0 29 78v1094q0 199 -123 249zM250 1507q90 -90 90 -229v-676q0 -254 90 -401.5t324 -196.5q-140 69 -216 147.5
t-106.5 183.5t-30.5 263v680q0 185 -151 229z" />
    <glyph glyph-name="v" unicode="v" horiz-adv-x="1745" 
d="M651 1372l324 -749q31 -82 74 -82q44 0 159 266q205 421 205 647q0 69 -44.5 116.5t-115.5 63.5q-53 12 -71.5 21t-18.5 45q0 14 18.5 29.5t35.5 15.5q41 0 138 -6t148 -6q85 0 169 6t77 6q49 0 49 -41q0 -45 -33 -62q-75 -42 -115 -109.5t-94 -193.5
q-40 -100 -100.5 -254t-112 -272.5t-94.5 -202.5l-159 -311q-35 -72 -74 -153t-79 -144t-65 -63q-47 0 -90 94l-577 1323q-28 67 -41.5 95.5t-40.5 69.5t-68 74.5t-96 46.5q-29 7 -29 54q0 20 19.5 34.5t42.5 14.5q7 0 165 -14.5t228 -14.5q120 0 264.5 14.5t149.5 14.5
q69 0 69 -62q0 -44 -73 -53q-67 -4 -117.5 -39.5t-50.5 -107.5q0 -45 24 -111zM98 1626q77 -80 156 -237l565 -1283q24 -61 53 -61q21 0 21 33q0 13 -7.5 33.5t-8.5 23.5l-582 1295q-75 165 -197 196zM1372 1634q82 -63 82 -164v-57q9 8 23 32.5t14 70.5q0 56 -31 87t-88 31
z" />
    <glyph glyph-name="w" unicode="w" horiz-adv-x="2703" 
d="M1683 1401l271 -733q27 -70 57 -70q22 0 60.5 63t77.5 146t59 127q155 356 155 549q0 60 -50 102t-113 45q-48 5 -71.5 16t-23.5 50q0 49 86 49q20 0 75 -8t175 -8q101 0 193 8t82 8q45 0 45 -45q0 -48 -37 -70q-141 -79 -225 -282l-463 -1131q-6 -12 -28 -62t-45.5 -93
t-52.5 -77t-55 -34q-31 0 -59 41t-52.5 102.5t-43.5 110.5q-29 73 -53 132.5t-120 298.5t-110 273q-16 66 -41 66q-26 0 -77 -91.5t-66 -129.5l-299 -578q-87 -169 -104.5 -197t-55.5 -28q-54 0 -90 123l-537 1376q-20 48 -34 70t-30 38t-42 44q-7 7 -50.5 38.5t-43.5 51.5
q0 53 53 53q14 0 162.5 -10.5t210.5 -10.5q175 0 279.5 10.5t84.5 10.5q21 0 35 -16.5t14 -32.5q0 -45 -73 -82q-111 -52 -111 -148q0 -25 16 -73l279 -750q8 -14 17.5 -32t20 -30t23.5 -12q21 0 40.5 24.5t34 54t28.5 57.5q40 75 110.5 208.5t77.5 147.5q37 72 37 176
q0 118 -82 246q-51 89 -168 131q-69 30 -69 69q0 62 127 62q56 0 154 -8t161 -8q73 0 187 8t178 8q86 0 86 -49q0 -51 -58 -74q-83 -31 -107 -66t-24 -106q0 -1 12 -49zM61 1651q100 -95 156 -230l500 -1282q24 -61 53 -61q6 0 13.5 10.5t7.5 17.5q0 28 -17 62l-512 1294
q-63 153 -201 189zM1135 1651q100 -95 155 -230l500 -1282q23 -57 53 -57q21 0 21 24q0 28 -17 62l-512 1294q-63 152 -200 189zM2281 1659q117 -60 123 -217q29 48 29 94q0 123 -152 123z" />
    <glyph glyph-name="x" unicode="x" horiz-adv-x="1942" 
d="M1130 946l361 -475q233 -315 369 -356q86 -28 86 -54q0 -73 -103 -73q-9 0 -114 10t-250 10h-189q-34 0 -106 -5t-107 -7q-123 0 -123 41q0 55 66 69q127 33 127 132q0 27 -49 98l-250 319l-295 -307q-57 -57 -57 -115q0 -88 122 -122q82 -14 82 -58q0 -65 -53 -65
q-21 0 -136 12t-171 12q-76 0 -177 -8t-102 -8q-17 0 -31 15t-14 34q0 36 18.5 48t63.5 30q119 47 295 242l381 393l-524 758q-65 84 -164 114q-61 20 -61 62q0 53 53 53q14 0 167.5 -12.5t278.5 -12.5q138 0 253.5 12.5t123.5 12.5q86 0 86 -53q0 -50 -74 -66
q-114 -26 -114 -115q0 -33 41 -90l229 -381l262 361q82 95 82 139q0 38 -36 64.5t-87 33.5q-78 9 -78 66q0 41 86 41q48 0 178.5 -10.5t170.5 -10.5t100.5 10.5t71.5 10.5q65 0 65 -53q0 -42 -78 -70q-162 -44 -286 -184zM1409 1638q45 -45 45 -73q0 -30 -12 -78
q53 39 53 82q0 69 -86 69zM205 1626q22 -21 73 -70.5t82 -93.5l775 -1077q57 -75 57 -160q0 -33 -33 -82q82 39 82 131q0 47 -53 127l-750 1069q-90 128 -233 156zM377 266q-2 -2 -32 -25.5t-62 -47.5q-64 -49 -86 -74q62 9 110.5 49t69.5 98z" />
    <glyph glyph-name="y" unicode="y" horiz-adv-x="1749" 
d="M635 1413l356 -782q9 -16 23.5 -42.5t31.5 -43.5t35 -17q27 0 58 82l225 680q25 83 25 135q0 73 -52.5 122.5t-119.5 66.5q-56 15 -83.5 30t-27.5 52q0 15 18 32t35 17q11 0 128 -10.5t163 -10.5q95 0 200.5 10.5t110.5 10.5q49 -7 49 -49q0 -43 -77 -82
q-55 -26 -102.5 -88.5t-106.5 -218.5l-611 -1639q-77 -191 -98 -221q-21 -33 -70 -33q-12 0 -34 2t-31 2h-111q-45 0 -45 21q0 27 29 49q107 83 258 340q1 3 20 30.5t30 48t11 36.5q0 6 -4.5 17t-7.5 20l-713 1499q-42 85 -155 139q-58 28 -58 65q0 62 50 62q-6 0 132 -12.5
t265 -12.5q174 0 285 12.5t104 12.5q28 0 51 -15t23 -38q0 -58 -82 -74q-148 -25 -148 -131q0 -8 21 -74zM115 1597q60 -52 90 -110l663 -1381q18 -36 29 -36q29 0 29 16q0 34 -13 57l-655 1352q-55 102 -143 102zM1335 1610q86 -79 86 -168v-49q33 54 33 94
q0 56 -32.5 89.5t-86.5 33.5z" />
    <glyph glyph-name="z" unicode="z" horiz-adv-x="1520" 
d="M569 430q0 -70 194.5 -100.5t321.5 -30.5q134 0 203.5 30.5t111.5 73.5t58 43q37 0 37 -36q0 -77 -68.5 -196t-175.5 -207.5t-215 -88.5q-47 0 -286 45t-451 45q-36 0 -70 -4t-73 -4q-82 0 -82 53q0 39 69 106.5t148 180.5q157 227 315 426l303 422q10 14 37 43t42.5 52
t15.5 48q0 37 -70 37q-50 3 -144.5 7.5t-158.5 4.5q-146 0 -224.5 -34.5t-140.5 -161.5q-28 -58 -57 -58q-57 0 -57 45q0 24 29.5 131t35.5 140q28 151 37.5 194t35.5 76t79 33q56 0 223 -10.5t276 -10.5h406q42 0 97.5 10.5t74.5 10.5q33 0 33 -45q0 -37 -320 -426
q-75 -91 -153 -199t-202.5 -286t-172.5 -244q-15 -20 -29 -37.5t-23.5 -39t-9.5 -38.5zM299 1552q11 16 26 36.5t30.5 33t37.5 12.5q1 0 164 -14t426 -14h242q135 0 135 36q0 17 -53 17q-19 0 -52 -2t-38 -2q-198 6 -497 15.5t-323 12.5q-48 0 -63.5 -20t-26.5 -74z
M1298 279q-114 -29 -254 -29q-127 0 -238.5 20t-193 45t-75.5 25q-29 0 -29 -25q0 -47 212 -84.5t386 -37.5q150 0 192 86z" />
    <glyph glyph-name="braceleft" unicode="{" horiz-adv-x="1188" 
d="M365 1241v-12q368 -40 368 -484v-716q0 -480 365 -508q49 0 49 -33v-45q0 -25 -82 -25q-328 0 -463 62q-237 123 -237 520v848q0 193 -91 270q-89 65 -155 74l-28 3.5t-21 6.5t-9 19v28q0 23 54 33q96 19 168 78q82 65 82 250v749q0 346 204 492q115 82 410 82h119
q49 0 49 -21v-53q0 -22 -90 -33q-207 -29 -265.5 -190.5t-58.5 -419.5v-561q0 -165 -100.5 -278t-267.5 -136zM524 2695q-66 -38 -86 -124.5t-20 -243.5v-574q0 -83 -8 -237q0 -70 -45 -136q73 32 93.5 119t20.5 254v627q0 217 45 315zM365 1090q53 -71 53 -226v-90v-737
q0 -157 20 -243.5t86 -125.5q-45 99 -45 316v737q0 167 -20.5 254.5t-93.5 114.5z" />
    <glyph glyph-name="bar" unicode="|" horiz-adv-x="2048" 
d="M877 2728h299v-3412h-299v3412z" />
    <glyph glyph-name="braceright" unicode="}" horiz-adv-x="1188" 
d="M823 1241q-166 23 -267 135t-101 279v721q0 176 -93 310t-288 148q-33 0 -33 25v53q0 21 65 21q202 0 330.5 -18.5t210.5 -88.5q176 -149 176 -467v-749q0 -186 82 -250q72 -59 168 -78q53 -10 53 -33v-28q0 -14 -9 -19t-20.5 -6.5t-27.5 -3.5q-75 -15 -156 -74
q-90 -76 -90 -270v-848q0 -404 -237 -520q-91 -40 -199 -51t-264 -11q-82 0 -82 25v45q0 15 9.5 21.5t26.5 8.5t25 3q353 48 353 487v578v123q0 260 90 376q100 125 278 144v12zM618 1409q-45 66 -45 131q-8 164 -8 242v569q0 144 -29.5 239.5t-129.5 133.5
q66 -66 82 -151.5t16 -221.5v-569q0 -169 21 -255.5t93 -117.5zM406 -360q100 38 129.5 133t29.5 239v733v91q0 158 53 229q-71 -30 -92.5 -117.5t-21.5 -255.5v-680q0 -136 -16 -221t-82 -151z" />
    <glyph glyph-name="asciitilde" unicode="~" horiz-adv-x="2732" 
d="M2130 1827l74 -45q-51 -104 -193 -261t-356 -157q-58 0 -137 20t-210.5 63t-210.5 64t-147 21q-128 0 -220 -81.5t-128 -135.5l-74 45q51 106 191 264t350 158q80 0 162.5 -20.5t201 -60.5t189.5 -59.5t135 -19.5q151 0 245.5 77t127.5 128z" />
    <glyph glyph-name="exclamdown" unicode="&#xa1;" horiz-adv-x="1147" 
d="M254 -860l246 1548q10 70 49 70q44 0 53 -74l189 -1511v-62q0 -119 -418 -119q-123 0 -123 86q0 41 4 62zM459 1094l-246 245q-33 35 -33 58q0 40 25 69l250 246q35 37 57 37q41 0 61 -20l258 -259q33 -31 33 -61q0 -37 -37 -74l-241 -241q-37 -37 -66 -37q-26 0 -61 37z
M504 406l-180 -1242q-5 -12 -5 -41q0 -49 33 -49q62 0 62 82zM360 1434l156 159q21 16 21 41t-29 25q-1 0 -45 -33l-176 -176q-25 -23 -25 -49q0 -12 33 -45l184 -180q18 -29 37 -29q29 0 29 24q0 15 -29 46l-151 151q-21 19 -21 29q0 19 16 37z" />
    <glyph glyph-name="cent" unicode="&#xa2;" 
d="M1135 2073q22 3 67 7.5t88 4.5q110 0 233 -35t201 -125q82 -93 82 -201q0 -42 -60 -95.5t-138 -93.5t-121 -40q-45 0 -45 74q0 107 -82 225q-80 115 -225 152v-1336q104 -41 188 -41q128 0 212.5 34t144 80t73.5 46q45 0 45 -53q0 -46 -71 -115t-142 -115
q-206 -131 -450 -131v-290q0 -38 -20.5 -66.5t-57.5 -28.5q-31 0 -50.5 32t-19.5 67v290q-255 54 -418 189q-258 226 -258 598q0 160 47 309.5t137 277t215.5 219t276.5 140.5v320q0 30 24.5 51.5t53.5 21.5q30 0 50 -26t20 -56v-290zM987 672v1257q-266 -173 -266 -565
q0 -277 110 -487q46 -88 156 -205zM791 1896q-209 -111 -322 -332t-113 -474q0 -172 73 -324t207 -250t306 -110q-145 54 -261.5 151.5t-183.5 232t-67 287.5q0 239 70 412.5t233 345.5zM1311 1921q146 -146 180 -295q12 -37 29 -37q32 0 32 49q0 63 -57 144
q-66 101 -184 139z" />
    <glyph glyph-name="sterling" unicode="&#xa3;" 
d="M1143 1024q-24 -157 -125.5 -282.5t-272.5 -266.5q-32 -32 -32 -49q0 -61 430 -61q320 0 459 90q50 33 83 67.5t68 78.5t60 63.5t51 19.5q13 0 27 -10t14 -23q0 -26 -17 -69l-266 -537q-17 -39 -42 -48t-81 -9q-77 0 -307 18.5t-381 18.5q-116 0 -287.5 -22.5
t-183.5 -22.5q-90 0 -90 65q0 36 24.5 119t40.5 131q5 27 50 41q178 76 293.5 235.5t115.5 325.5q0 30 -7.5 69t-12.5 58h-312q-110 0 -110 78q0 69 90 69h270q-7 13 -18.5 33.5t-22.5 32.5q-171 195 -237 336t-66 282q0 193 110 348.5t287 243.5t365 88q399 0 680 -221
q65 -49 65 -114q0 -31 -47 -168t-47 -181q0 -106 -57 -106q-41 0 -41 70q0 162 -76 304t-214.5 226t-311.5 84q-146 0 -267.5 -81t-121.5 -218q0 -59 20.5 -115.5t58.5 -113t79 -104.5t83 -97q121 -139 185.5 -262t64.5 -271h357q30 0 47.5 -23t17.5 -54q0 -66 -106 -66
h-336zM1413 2367q199 -127 266 -339q9 54 9 65q0 114 -79.5 189.5t-195.5 84.5zM520 2179q-114 -119 -114 -340q0 -180 180 -426q128 -176 180.5 -268.5t52.5 -218.5q0 -86 -37 -238q95 159 95 262q0 112 -57.5 218t-180.5 278q-161 215 -180 393q0 206 61 340zM1626 393
q-241 -86 -487 -86q-216 0 -360.5 20.5t-119.5 20.5q-41 0 -41 -20q0 -82 521 -82q331 0 487 147z" />
    <glyph glyph-name="fraction" unicode="&#x2044;" horiz-adv-x="193" 
d="M729 2503l-1048 -2409q-26 -60 -63.5 -83t-109.5 -23q-57 0 -57 24q0 4 2 15t2 14l1090 2478q15 43 33 54.5t73 11.5h37q57 0 57 -33q0 -12 -7.5 -27.5t-8.5 -21.5z" />
    <glyph glyph-name="yen" unicode="&#xa5;" 
d="M360 1606h238l-246 499q-73 146 -149.5 223.5t-210.5 108.5q-82 20 -82 74q0 57 53 57q11 0 183 -16.5t374 -16.5q167 0 267.5 12.5t101.5 12.5q61 0 61 -57q0 -49 -86 -66q-41 -10 -73.5 -38.5t-32.5 -63.5q0 -98 33 -152l372 -766q37 -74 66 -74q34 0 106 148
q42 77 125.5 233.5t137 286.5t53.5 213q0 96 -67 149.5t-163 67.5q-49 11 -69.5 21t-20.5 45q0 53 62 53q29 0 149.5 -16.5t255.5 -16.5q117 0 229 16.5t107 16.5q74 0 74 -53t-74 -62q-73 -17 -133 -66t-106.5 -113.5t-90 -147.5t-80.5 -156q4 0 -184 -356h299
q31 0 50.5 -23t19.5 -55q-9 -70 -111 -70h-332q0 -12 -8 -20q-21 -37 -56.5 -99t-57 -107.5t-37.5 -96.5q-5 -19 -8 -30t-5 -20h545q31 0 50.5 -21t19.5 -56q-9 -66 -111 -66h-516v-471q0 -165 67 -253.5t220 -106.5q69 -11 106 -22.5t37 -51.5q0 -57 -90 -57q10 0 -194 20
t-351 20q-173 0 -349 -20t-171 -20q-57 0 -57 49q0 60 86 77q303 49 303 381v353q0 21 -1.5 53t-2.5 49h-533q-82 0 -82 74q0 69 90 69h484q-12 32 -37 93.5t-41 91.5l-94 188h-320q-33 0 -57.5 20.5t-24.5 53.5q0 74 90 74zM193 2413q103 -94 200 -287l455 -918
q90 -199 90 -381v-356q0 -135 -44.5 -219t-74.5 -113q45 2 112.5 64t67.5 260v373q0 120 -23 202t-83 215l-447 897q-51 113 -104.5 178.5t-148.5 84.5zM1597 2429q107 -98 107 -205v-45q9 11 23 40t14 75q0 60 -40 97.5t-104 37.5z" />
    <glyph glyph-name="florin" unicode="&#x192;" 
d="M1245 1450l-74 -414q-56 -346 -119.5 -577.5t-199.5 -429.5q-83 -125 -223.5 -254t-303.5 -212t-313 -83q-92 0 -159 61q-62 52 -62 90q0 34 51.5 114.5t112.5 147t90 66.5q27 0 49 -65q85 -189 201 -189q139 0 225 164q117 200 185 672l20 131q13 90 41.5 238t32.5 171
l69 402q0 45 -37 45h-217q-24 0 -24 16q0 4 4 12t4 9l37 98q17 53 74 53h110q41 0 64 8.5t32 24t17.5 61.5t9.5 54q46 238 170 460.5t305 382.5q131 118 302.5 200.5t308.5 82.5q61 0 137 -48.5t76 -102.5q0 -37 -51 -118.5t-112 -145.5t-91 -64q-23 0 -50 61
q-79 181 -229 181q-114 0 -175 -106.5t-108 -270.5q-62 -212 -110 -508q-1 -9 -4 -30.5t-5.5 -42.5t-2.5 -34q0 -31 33 -40t147 -9q105 0 160 21.5t89.5 51.5t45.5 30q28 0 28 -29q0 -30 -16 -57l-78 -152q-30 -57 -90 -57h-319q-50 0 -58 -70zM1831 2765q97 -55 156 -160
l16 -16q11 0 22 14t11 23q0 36 -58.5 89.5t-105.5 53.5q-25 0 -41 -4zM1360 2580q-309 -325 -393 -827l-213 -1212q-63 -378 -156 -586q147 199 217 586l225 1282q47 291 168 516q44 84 152 241zM53 -143q0 24 -33 24q-14 0 -27.5 -14.5t-28.5 -36.5t-30 -43l-65 -94
q-25 -38 -25 -53q0 -29 33 -29q2 0 18.5 21.5t26.5 35.5l111 148q20 30 20 41z" />
    <glyph glyph-name="section" unicode="&#xa7;" 
d="M1651 2068q-27 0 -43 26.5t-48 103t-70 143.5t-97 125q-168 160 -389 160q-141 0 -255 -74t-114 -209q0 -112 78 -180.5t213 -126.5q213 -91 379.5 -175.5t304.5 -193.5q112 -90 174.5 -225.5t62.5 -286.5q0 -308 -270 -545q-21 -21 -21 -32q0 -12 8 -24.5t24.5 -30
t29.5 -31.5q164 -158 164 -426q0 -188 -95.5 -334t-255 -225.5t-346.5 -79.5q-133 0 -230 28.5t-172.5 65.5t-92.5 37q-23 0 -94 -39t-82 -39q-19 0 -34 20t-15 41q32 200 32 307q0 25 -6 110t-6 95q0 103 61 103q32 0 62 -37q9 -12 65 -139q77 -180 230 -293t344 -113
q158 0 271.5 100.5t113.5 255.5q0 131 -84 209t-227 135l-336 144q-272 114 -445.5 294t-173.5 435q0 334 279 532q53 43 53 62q0 22 -25 45q-27 27 -73 75t-80.5 127.5t-34.5 194.5q0 269 191.5 429.5t467.5 160.5q129 0 219 -22t177 -55.5t112 -33.5q14 0 60.5 31t66.5 31
q41 0 41 -49q0 2 -8 -139t-8 -201q8 0 8 -168q0 -99 -61 -99zM1282 2617q230 -132 303 -364q0 144 -81 249.5t-222 114.5zM442 70q13 -86 13 -267q0 -31 -10.5 -105t-10.5 -79q0 -41 37 -41q41 0 41 57v66q0 184 -70 369zM504 2392q-58 -113 -58 -217q0 -136 85 -247
t204.5 -190t300.5 -173q228 -111 377 -201q141 -80 193.5 -177t52.5 -261q33 109 33 164q0 95 -59 175t-151 144t-174.5 106t-201.5 99q-199 94 -316 162t-210 183.5t-93 272.5q0 47 17 160zM422 1450q-82 -144 -82 -274q0 -303 225 -480q185 -143 594 -311
q206 -83 322 -184.5t116 -270.5q17 62 17 90q0 159 -122.5 251t-324.5 175q-387 167 -573 308q-209 169 -209 479q0 94 37 217zM733 1622q-91 0 -156 -108.5t-65 -202.5q0 -169 238 -283l225 -110q35 -17 224.5 -119.5t209.5 -102.5q81 0 137 83t56 184q0 164 -110 254.5
t-333 207.5q-127 71 -251.5 134t-174.5 63z" />
    <glyph glyph-name="currency" unicode="&#x20ac;" 
d="M1479 586q-216 -135 -430 -135q-223 0 -418 122l-287 -282q-34 -34 -49 -37q-22 0 -45 25l-82 77q-5 7 -23 26.5t-18 35.5q0 41 25 65l278 279q-147 211 -147 450q0 233 135 439l-266 266q-37 34 -37 49q0 21 24 45l82 82q44 41 58 41q41 0 65 -25l266 -266
q206 135 434 135q244 0 455 -147l279 278q34 37 49 37q21 0 45 -24l82 -82q41 -44 41 -58q0 -41 -25 -65l-287 -287q127 -197 127 -418q0 -225 -139 -430l299 -299q37 -37 37 -49q0 -22 -25 -45l-81 -82q-44 -41 -58 -41q-46 0 -65 25zM1044 831q158 0 272 113t114 273
q0 156 -114.5 268t-271.5 112q-155 0 -270 -113.5t-115 -266.5q0 -159 114.5 -272.5t270.5 -113.5zM274 2040q-81 -35 -81 -82q0 -17 16 -33l184 -184q31 -29 49 -29q21 5 21 37q0 8 -12 20l-172 173q-30 27 -33 45q0 25 28 53zM1905 414q-38 -29 -58 -29q-12 2 -45 33
l-172 172q-12 12 -20 12q-32 0 -37 -20q0 -21 29 -50l184 -184q16 -16 33 -16q38 0 86 82zM274 356q-28 40 -28 58q4 16 33 45l172 172q12 12 12 20q0 32 -21 37q-20 0 -49 -29l-184 -184q-16 -16 -16 -33q0 -37 81 -86zM1905 1982q-44 86 -86 86q-20 0 -33 -20l-184 -180
q-29 -29 -29 -49q0 -25 37 -25q4 0 20 16l172 172q29 29 45 29q29 0 58 -29zM1069 1688q422 -119 422 -603q0 -8 -2 -23t-2 -22q57 107 57 201q0 110 -56 213.5t-151.5 168.5t-206.5 65h-61zM578 1712q-246 -194 -246 -495q0 -164 77 -322.5t215 -258t306 -99.5h57
q-185 55 -270 110q-140 88 -228 240.5t-88 316.5q0 280 177 508z" />
    <glyph glyph-name="quotesingle" unicode="'" horiz-adv-x="721" 
d="M569 2470l-77 -541q-9 -65 -58 -65h-139q-57 0 -57 65l-82 565q0 34 13.5 54t31.5 20h327q41 0 41 -98zM348 1974l-74 508q-6 29 -28 29q-33 0 -33 -37l78 -532q0 -25 33 -25q24 0 24 57z" />
    <glyph glyph-name="quotedblleft" unicode="&#x201c;" horiz-adv-x="1769" 
d="M758 2052l-217 -229q-27 -33 -66 -33q-110 0 -198.5 140.5t-88.5 256.5q0 366 332 684q148 148 217 148q20 0 34.5 -15.5t14.5 -33.5q0 -24 -36 -62q-218 -183 -218 -364q0 -102 48.5 -165t160.5 -163q58 -58 58 -74q0 -39 -41 -90zM1556 2052l-217 -229q-25 -33 -65 -33
q-110 0 -198.5 140.5t-88.5 256.5q0 367 332 684q148 148 217 148q20 0 34.5 -15.5t14.5 -33.5q0 -25 -37 -62q-217 -184 -217 -364q0 -102 48.5 -165t160.5 -163q57 -57 57 -74q0 -41 -41 -90zM705 2970q-131 -92 -235 -207.5t-168 -256.5t-64 -286q0 -170 110 -307
q7 -8 22.5 -29t30 -33t29.5 -12q41 0 41 25q-9 26 -25 37q-143 152 -143 319q0 193 97.5 360.5t267.5 348.5zM1503 2970q-199 -139 -333 -337.5t-134 -412.5q0 -171 111 -307q11 -15 24.5 -32.5t28 -29.5t29.5 -12q41 0 41 25q-8 24 -25 37q-143 150 -143 319
q0 193 98 361.5t266 347.5z" />
    <glyph glyph-name="guillemotleft" unicode="&#xab;" horiz-adv-x="1769" 
d="M197 971l598 614q51 62 106 62q16 0 26.5 -14.5t10.5 -30.5q-3 -11 -8.5 -25t-7.5 -21l-353 -626q-24 -58 -24 -90q0 -42 24 -90l353 -627q5 -12 9.5 -24.5t6.5 -20.5q0 -17 -10.5 -31t-26.5 -14q-59 0 -106 57l-598 615l-40.5 40.5t-36.5 45t-14 49.5q0 18 8.5 36
t26.5 38.5t31 32.5t25 24zM864 971l598 614q53 62 107 62q14 0 25.5 -14.5t11.5 -30.5q-3 -14 -9 -26.5t-8 -19.5l-352 -626q-25 -60 -25 -90q0 -40 25 -90l352 -627q5 -12 9.5 -22.5t7.5 -22.5q0 -17 -11.5 -31t-25.5 -14q-58 0 -107 57l-598 615l-40 40t-36 45t-14 50
q0 16 7.5 33.5t24 38t31.5 34t27 25.5zM586 1286l-369 -385q-29 -36 -29 -70q0 -36 29 -65l369 -385l-299 385q-21 26 -21 65q0 38 21 70zM1253 1286l-368 -385q-29 -34 -29 -70q0 -38 29 -65l368 -385l-299 385q-20 27 -20 65q0 37 20 70z" />
    <glyph glyph-name="guilsinglleft" unicode="&#x2039;" horiz-adv-x="1106" 
d="M201 971l598 614q51 62 106 62q16 0 26.5 -14.5t10.5 -30.5q-3 -11 -8.5 -25t-7.5 -21l-353 -626q-24 -58 -24 -90q0 -42 24 -90l353 -627q5 -12 9.5 -24.5t6.5 -20.5q0 -17 -10.5 -31t-26.5 -14q-59 0 -106 57l-598 615l-40 40t-36 45t-14 50q0 16 7.5 33.5t24 38
t31.5 34t27 25.5zM590 1286l-369 -385q-28 -35 -28 -70q0 -37 28 -65l369 -385l-299 385q-21 28 -21 65q0 35 21 70z" />
    <glyph glyph-name="guilsinglright" unicode="&#x203a;" horiz-adv-x="1106" 
d="M909 705l-598 -615q-47 -57 -106 -57q-16 0 -26.5 14t-10.5 31q0 8 3 15.5t8 17.5t5 12l353 627q24 56 24 90q0 24 -24 90l-353 626l-8 17.5t-8 28.5q0 16 10.5 30.5t26.5 14.5q55 0 106 -62l598 -614q90 -90 90 -131q0 -27 -14 -50t-36 -45zM385 1286l229 -385
q21 -32 21 -70q0 -33 -21 -65l-229 -385l299 385q29 36 29 65q0 34 -29 70z" />
    <glyph glyph-name="fi" unicode="&#xfb01;" horiz-adv-x="2245" 
d="M66 1458l36 189h189q54 0 66 23.5t12 82.5l12 254q19 449 315 700q251 209 529 209t573 -200q148 -96 148 -176q0 -27 -13 -57t-37 -64t-36 -52l-86 -118q-48 -66 -91 -66q-20 0 -35 16.5t-27 44t-19 42.5q-197 471 -467 471q-138 0 -224.5 -92t-119.5 -236
q-37 -152 -37 -397q0 -50 2 -139t2 -128q0 -70 11 -94t50 -24h615q125 0 204 18.5t177 75.5q13 9 34 23t27 14q41 0 41 -37q0 -3 -4 -97t-4 -128v-1041q0 -102 14 -166t68 -114.5t163 -75.5q103 -20 103 -58q0 -61 -62 -61q16 0 -152 12.5t-306 12.5q-125 0 -225 -14.5
t-144 -14.5q-17 0 -37 11.5t-20 29.5q0 37 41 57q98 55 131 135.5t33 208.5v770q0 99 -26.5 154t-85.5 75.5t-159 20.5h-438q-33 0 -43 -26.5t-10 -100.5v-839q0 -184 55.5 -277t226.5 -117q86 -8 86 -73q0 -45 -90 -45q-21 0 -190 20t-281 20q-57 0 -199 -14t-141 -14
q-45 0 -45 61q0 26 66 53q72 30 95 101.5t23 198.5v970q0 82 -69 82h-225zM700 2634q-165 -121 -229 -336q-61 -197 -61 -561v-1274q0 -220 -78 -332q86 16 114 123q25 77 25 250v1253q0 361 41 537q45 182 188 340zM1479 139q87 42 117 116t30 191v775q0 240 -176 262
q73 -51 94 -123t21 -180v-86v-549q0 -277 -86 -406zM1311 2757q233 -162 315 -402q28 -69 53 -69q21 0 21 57q-39 133 -149.5 253.5t-239.5 160.5z" />
    <glyph glyph-name="fl" unicode="&#xfb02;" horiz-adv-x="2245" 
d="M66 1458l36 189h189q54 0 66 31.5t12 115.5q14 337 143 569q74 143 194 269.5t271.5 205t308.5 78.5q79 0 134.5 -17t137.5 -51t113 -34q51 0 119.5 61.5t89.5 61.5q22 0 35.5 -18t13.5 -44q0 -3 -8 -97t-8 -140v-2224q0 -128 59.5 -210t181.5 -93q58 -10 84.5 -21.5
t26.5 -56.5q0 -19 -19 -32t-38 -13q-31 0 -186 14t-253 14q-151 0 -258 -10t-106 -10q-94 0 -94 53t65 74q90 37 115 105t25 186v1884q0 176 -66 242q-115 114 -315 114q-211 0 -312 -172q-40 -76 -57 -258q-12 -190 -12 -377v-106q0 -49 13 -67.5t52 -22.5t148 -4
q153 0 196 45q56 53 66 53q33 0 33 -45q0 -11 -6.5 -23.5t-6.5 -17.5l-53 -176q-7 -37 -53 -37h-336q-33 0 -43 -25t-10 -98v-831q0 -184 55.5 -277t226.5 -117q86 -8 86 -65q0 -26 -29.5 -39.5t-60.5 -13.5q-19 0 -189 20t-282 20q-64 0 -196 -14t-144 -14q-45 0 -45 57
q0 30 66 57q72 30 95 102.5t23 205.5v942q0 71 -14.5 86.5t-54.5 15.5h-225zM655 2494q-245 -216 -245 -757v-1262q0 -171 -18 -228t-60 -116q86 16 114 123q25 77 25 250v1245q0 227 41 393t143 352zM1503 143q71 43 97 106.5t26 160.5v1929q0 119 -57 205
q-85 131 -185 131h-36q217 -125 217 -332v-1933q0 -149 -62 -267z" />
    <glyph glyph-name="emdash" unicode="&#x2013;" 
d="M1835 1094v-283q0 -98 -78 -98h-1401q-73 0 -73 57v270q0 103 73 103h1405q32 0 53 -14t21 -35zM340 999v-159q0 -58 29 -58q24 0 24 45v136q0 41 49 41h1262q61 0 61 32q0 33 -41 33h-1327q-57 0 -57 -70z" />
    <glyph glyph-name="dagger" unicode="&#x2020;" 
d="M1122 -573h-114q0 240 -41 753q-46 520 -181 844q-16 40 -16 70q0 10 6.5 22.5t15.5 24t15 22.5q83 123 144 290t61 300q0 57 -49 57q-151 0 -377 -143q-22 -14 -48 -31t-52.5 -30t-47.5 -13q-33 0 -147.5 107.5t-114.5 146.5q0 33 54.5 96.5t121 117t94.5 53.5
q31 0 119 -50q265 -151 393 -151q46 0 46 53q0 172 -209 483q-17 25 -17 41q0 21 61 90.5t132 131t94 61.5q30 0 92.5 -56t114 -124.5t51.5 -98.5q0 -24 -29 -69q-47 -75 -87.5 -140.5t-72.5 -148t-32 -166.5q0 -57 41 -57q71 0 200.5 60t221.5 124q52 37 77 37
q32 0 102.5 -57t125.5 -124.5t55 -101.5q0 -44 -114.5 -144.5t-176.5 -100.5q-18 0 -65 28q-96 57 -222.5 114.5t-199.5 57.5q-41 0 -41 -45q0 -129 68 -306t153 -325q2 -8 9 -23t7 -22q0 -21 -20 -61q-120 -225 -160 -606q-41 -398 -41 -991zM1040 1475q-77 -203 -163 -345
q-29 -36 -29 -61q0 -13 12 -49q132 -294 180 -909q17 162 17 254q0 138 -30 333t-77 293q-20 53 -20 62q0 15 16 49q94 188 94 323v50zM1077 2679q-57 -34 -131 -99.5t-74 -105.5q0 -11 82 -155.5t90 -168.5q-8 76 -51 203.5t-43 120.5q0 51 127 205zM1655 2044
q-95 -27 -205.5 -83t-110.5 -114q0 -30 51 -58.5t151.5 -66.5t121.5 -47q-9 11 -121 90t-112 95q0 20 41.5 55t95 70.5t88.5 58.5zM483 2048q-221 -121 -221 -197q0 -36 63.5 -89t137.5 -99q-29 29 -82 97t-53 95q0 38 155 193z" />
    <glyph glyph-name="daggerdbl" unicode="&#x2021;" 
d="M180 1851q0 33 54.5 96.5t121 117t95.5 53.5q38 0 118 -54q265 -151 394 -151q45 0 45 53q0 83 -67.5 228t-141.5 255q-17 28 -17 41q0 21 61 90.5t132 131t94 61.5q31 0 93 -55.5t113.5 -124.5t51.5 -99q0 -24 -29 -69q-97 -145 -142.5 -248.5t-45.5 -226.5
q0 -33 37 -33q72 0 199 59.5t223 124.5q61 33 78 33q31 0 100.5 -55.5t125.5 -123t56 -100.5q0 -27 -58 -88.5t-128 -111t-105 -49.5q-18 0 -65 28q-87 58 -220 117t-210 59q-29 0 -29 -28q0 -74 18.5 -158t48 -163.5t63.5 -158t79 -176.5q16 -32 16 -53q0 -9 -16 -49
q-29 -74 -91.5 -211t-88 -220.5t-25.5 -186.5q0 -62 53 -62q110 0 402 172q48 29 65 29q41 0 109 -49t125 -111.5t57 -85.5q0 -45 -109.5 -162t-172.5 -117q-28 0 -78 33q-92 64 -221 124.5t-201 60.5q-18 0 -29.5 -18.5t-11.5 -39.5q0 -117 72 -250.5t120 -199.5
q9 -17 19 -35.5t10 -34.5q0 -30 -51.5 -98t-113.5 -124t-93 -56q-36 0 -161.5 124.5t-125.5 157.5q0 20 17 37q209 330 209 487q0 50 -45 50q-65 0 -182 -47.5t-212 -104.5q-78 -49 -118 -49q-29 0 -94 51.5t-121 117.5t-56 97q0 27 55 88t118.5 113.5t88.5 52.5
q38 0 148 -74q232 -139 381 -139q41 0 41 74q0 220 -217 631q-1 3 -9 18t-8 27q0 22 29 61q70 109 139.5 295t69.5 303q0 23 -13.5 40t-31.5 17q-152 0 -381 -139q-22 -14 -48 -31t-52.5 -30t-47.5 -13t-141.5 102.5t-120.5 151.5zM1081 2679q-204 -127 -204 -205
q0 -13 84.5 -161.5t87.5 -162.5q-5 50 -25 116t-45 135t-25 73q0 51 127 205zM1659 2044q-316 -95 -316 -193q0 -31 67 -67.5t149.5 -66t107.5 -38.5q-58 41 -145.5 106t-87.5 79q0 21 40.5 53.5t108.5 76.5t76 50zM487 2048q-221 -121 -221 -193q0 -36 63.5 -89t137.5 -99
q-29 29 -82 96t-53 92q0 34 155 193zM1049 1479q-56 -167 -152 -328q-16 -24 -16 -41q0 -1 12 -37q126 -243 156 -340q-8 172 -70 307q-21 66 -21 74q0 23 17 57q74 172 74 275v33zM1081 -524q-23 27 -52.5 62.5t-52 74t-22.5 68.5q0 -7 44 122t51 201q-4 -14 -88 -165
t-84 -158q0 -42 70.5 -104t133.5 -101zM1659 111q-225 132 -225 180q0 15 87.5 79.5t145.5 104.5q-43 -16 -121 -44t-140.5 -62t-62.5 -66q0 -56 113.5 -112.5t202.5 -79.5zM487 106q-155 142 -155 189q0 29 53 96t82 96q-61 -36 -131 -93t-70 -95q0 -43 75 -100.5
t146 -92.5z" />
    <glyph glyph-name="periodcentered" unicode="&#xb7;" horiz-adv-x="1036" 
d="M586 1245l237 -241q37 -37 37 -74q0 -29 -33 -62l-258 -258q-20 -20 -61 -20q-22 0 -57 37l-246 245q-25 31 -25 66q0 28 33 61l246 242q31 41 61 41q20 0 66 -37zM360 971l144 143q41 41 41 57q0 21 -25 21q-16 0 -53 -37l-172 -172q-37 -37 -37 -45q0 -16 25 -49
l180 -176q30 -33 45 -33q29 0 29 25q0 26 -21 40l-156 160q-20 20 -20 33t20 33z" />
    <glyph glyph-name="paragraph" unicode="&#xb6;" 
d="M1815 2277v-2183q0 -179 18 -282.5t93 -179t233 -103.5q69 -8 69 -61q0 -58 -102 -58q13 0 -239.5 18.5t-444.5 18.5q-128 0 -384 -14.5t-313 -14.5q-65 0 -65 54q0 30 15.5 43.5t41.5 19t49 10.5q127 33 162 161.5t35 309.5v1299q0 38 -19.5 45.5t-115.5 7.5
q-323 0 -505.5 156.5t-182.5 474.5q0 351 164.5 542t498.5 191q16 0 254 -8t459 -8q176 0 319 10t136 10q127 0 127 -53q0 -40 -25.5 -52.5t-77.5 -21.5q-200 -38 -200 -332zM1343 -381h111q41 0 41 41v2855q0 25 -41 25h-111q-40 0 -40 -41v-2839q0 -41 40 -41zM1610 2486
q0 62 -33 62t-33 -62v-2822q0 -57 33 -57t33 61v2818zM918 -422q84 36 132 104t48 244v1340q0 61 -33 61t-33 -61v-1282q0 -145 -19.5 -237t-94.5 -169zM618 2671q-200 -81 -298.5 -266.5t-98.5 -417.5q0 -125 51.5 -248.5t145.5 -202.5q77 -67 209 -94q-328 199 -328 553
q0 195 83.5 376t235.5 300z" />
    <glyph glyph-name="bullet" unicode="&#x2022;" horiz-adv-x="2732" 
d="M1368 1962q153 0 281.5 -78.5t204 -210.5t75.5 -280q0 -150 -75.5 -283.5t-204 -212t-281.5 -78.5q-151 0 -281.5 77.5t-207 210t-76.5 286.5q0 153 76.5 284t206 208t282.5 77z" />
    <glyph glyph-name="quotesinglbase" unicode="&#x201a;" horiz-adv-x="1036" 
d="M221 373l217 233q29 29 66 29q75 0 141 -68t106 -162.5t40 -166.5q0 -366 -332 -684q-148 -148 -217 -148q-19 0 -34 16t-15 33q0 26 77 101t126.5 147.5t49.5 177.5q0 151 -208 328q-58 55 -58 78q0 35 41 86zM463 -238q69 91 69 177q0 167 -167 319q-29 27 -29 49
q0 5 24 41l123 131q29 29 29 45q0 29 -37 29q-8 0 -16.5 -9.5t-12.5 -15.5l-180 -192q-24 -24 -24 -49q0 -14 10 -27t26.5 -25t28.5 -22q70 -54 125 -138.5t55 -152.5q0 -73 -24 -160z" />
    <glyph glyph-name="quotedblbase" unicode="&#x201e;" horiz-adv-x="1835" 
d="M221 373l217 233q29 29 66 29q75 0 141 -68t106 -162.5t40 -166.5q0 -366 -332 -684q-148 -148 -217 -148q-19 0 -34 16t-15 33q0 26 77 101t126.5 147.5t49.5 177.5q0 151 -208 328q-58 55 -58 78q0 35 41 86zM1020 373l217 233q27 29 66 29q110 0 198 -140.5t88 -256.5
q0 -367 -332 -684q-144 -148 -217 -148q-17 0 -33 16t-16 33q0 26 76.5 100t127 147.5t50.5 178.5q0 152 -209 328q-57 57 -57 78q0 37 41 86zM463 -238q69 91 69 177q0 167 -167 319q-29 27 -29 49q0 5 24 41l123 131q29 29 29 45q0 29 -37 29q-8 0 -16.5 -9.5t-12.5 -15.5
l-180 -192q-24 -24 -24 -49q0 -14 10 -27t26.5 -25t28.5 -22q70 -54 125 -138.5t55 -152.5q0 -73 -24 -160zM1262 -238q69 91 69 177q0 166 -168 319q-28 28 -28 49q0 5 24 41l123 131q29 31 29 45q0 29 -37 29q-8 0 -16.5 -9.5t-12.5 -15.5l-180 -192q-25 -25 -25 -49
q0 -14 10 -27t25.5 -24.5t30.5 -22.5q70 -54 125 -138.5t55 -152.5q0 -73 -24 -160z" />
    <glyph glyph-name="quotedblright" unicode="&#x201d;" horiz-adv-x="1835" 
d="M221 2757l217 233q31 29 66 29q75 0 141 -68t106 -163.5t40 -166.5q0 -364 -332 -684q-147 -147 -217 -147q-19 0 -34 16t-15 33q0 24 36 62q217 191 217 360q0 104 -52.5 174t-155.5 158q-58 55 -58 78q0 35 41 86zM1020 2757l217 233q29 29 66 29q110 0 198 -140.5
t88 -257.5q0 -365 -332 -684q-143 -147 -217 -147q-17 0 -33 16t-16 33q0 23 37 62q217 191 217 360q0 104 -53 175t-156 157q-57 57 -57 78q0 37 41 86zM463 2146q69 91 69 176q0 168 -167 320q-29 27 -29 49q0 5 24 41l123 131q29 27 29 45q0 29 -37 29q-1 0 -29 -25
l-180 -192q-24 -26 -24 -49q0 -14 10 -27t26.5 -25t28.5 -22q154 -118 176 -270q0 -108 -20 -181zM1262 2146q69 91 69 176q0 167 -168 320q-28 28 -28 49q0 5 24 41l123 131q29 29 29 45q0 29 -37 29q-6 -2 -29 -25l-180 -192q-25 -27 -25 -49q0 -14 10 -27t25.5 -24.5
t30.5 -22.5q154 -118 176 -270q0 -108 -20 -181z" />
    <glyph glyph-name="guillemotright" unicode="&#xbb;" horiz-adv-x="1769" 
d="M909 705l-598 -615q-47 -57 -106 -57q-16 0 -26.5 14t-10.5 31q0 8 3 15.5t8 17.5t5 12l353 627q24 56 24 90q0 24 -24 90l-353 626l-8 17.5t-8 28.5q0 16 10.5 30.5t26.5 14.5q55 0 106 -62l598 -614q90 -90 90 -131q0 -27 -14 -50t-36 -45zM1577 705l-598 -615
q-49 -57 -107 -57q-36 0 -36 45q0 8 3 15.5t8 17.5t5 12l352 627q25 54 25 90q0 27 -25 90l-352 626l-8 17.5t-8 28.5q0 45 36 45q54 0 107 -62l598 -614q90 -90 90 -131q0 -27 -14 -50t-36 -45zM385 1286l229 -385q21 -32 21 -70q0 -33 -21 -65l-229 -385l299 385
q29 36 29 65q0 34 -29 70zM1053 1286l229 -385q21 -35 21 -70q0 -30 -21 -65l-229 -385l299 385q28 35 28 65q0 35 -28 70z" />
    <glyph glyph-name="ellipsis" unicode="&#x2026;" horiz-adv-x="3113" 
d="M459 25l-246 245q-33 35 -33 58q0 40 25 69l250 246q37 37 57 37q41 0 61 -21l258 -258q33 -31 33 -61q0 -37 -37 -74l-241 -241q-37 -37 -66 -37q-26 0 -61 37zM1495 25l-246 245q-32 34 -32 58q0 39 24 69l250 246q37 37 57 37q41 0 62 -21l258 -258q33 -33 33 -61
q0 -35 -37 -74l-242 -241q-35 -37 -66 -37q-26 0 -61 37zM2531 25l-245 245q-33 33 -33 58q0 39 24 69l250 246q39 37 58 37q41 0 61 -21l258 -258q33 -33 33 -61q0 -35 -37 -74l-242 -241q-35 -37 -65 -37q-25 0 -62 37zM1397 365l155 159q21 13 21 41q0 25 -29 25
q-11 -3 -26 -17t-19 -16l-176 -176q-25 -25 -25 -49q0 -12 33 -45l185 -181q19 -28 36 -28q29 0 29 24q0 18 -29 45l-151 152q-21 21 -21 29q0 18 17 37zM360 365l156 159q21 14 21 41q0 25 -29 25q-1 0 -45 -33l-176 -176q-25 -23 -25 -49q0 -12 33 -45l184 -181
q19 -28 37 -28q29 0 29 24q0 16 -29 45l-151 152q-21 19 -21 29q0 19 16 37zM2433 365l156 159q20 13 20 41q0 25 -29 25q-11 -3 -26 -17t-19 -16l-176 -176q-24 -24 -24 -49q0 -13 32 -45l185 -181q19 -28 37 -28q28 0 28 24q0 17 -28 45l-152 152q-20 20 -20 29
q0 19 16 37z" />
    <glyph glyph-name="perthousand" unicode="&#x2030;" horiz-adv-x="3990" 
d="M1262 2028q0 -335 -172 -574q-180 -246 -418 -246q-168 0 -292.5 112t-190.5 281t-66 332q0 377 164 611q72 97 184 167t221 70q243 0 410 -213q160 -203 160 -540zM1995 2699l-1131 -2588q-21 -53 -97 -88t-103 -35q-33 0 -33 32q0 5 4 17t4 16l1171 2663q29 65 91 65
h53q53 0 53 -33q0 -10 -5 -25t-7 -24zM2540 803q0 -336 -173 -574q-178 -245 -417 -245q-168 0 -293 112.5t-190.5 280.5t-65.5 332q0 378 164 610q71 98 182.5 167.5t222.5 69.5q244 0 410 -213q160 -203 160 -540zM3867 803q0 -335 -172 -574q-180 -245 -418 -245
q-168 0 -293 112.5t-190.5 280.5t-65.5 332q0 378 164 610q71 98 182.5 167.5t222.5 69.5q244 0 410 -213q160 -203 160 -540zM561 2626q-116 0 -172.5 -114.5t-56.5 -246.5q0 -157 53 -365.5t163 -359.5t271 -151q135 0 190.5 116.5t55.5 263.5q0 151 -57.5 354.5
t-171.5 353t-275 149.5zM672 2658q129 -68 199 -146t128 -218q119 -279 119 -672q41 128 41 238q0 168 -53 340t-148 299q-103 140 -286 159zM1839 1401q-116 0 -172.5 -114.5t-56.5 -246.5q0 -157 53 -365.5t163 -359.5t271 -151q135 0 190.5 116.5t55.5 264.5
q0 151 -57.5 354t-171.5 352.5t-275 149.5zM1950 1434q128 -67 198.5 -146t128.5 -219q119 -282 119 -672q41 128 41 238q0 168 -52.5 339.5t-148.5 299.5q-102 139 -286 160zM1569 1233q-119 -192 -119 -467q0 -350 184 -573q117 -142 320 -148q-185 78 -275 193
q-168 204 -168 524q0 226 58 471zM291 2458q-119 -194 -119 -467q0 -349 184 -574q118 -141 320 -147q-185 78 -275 192q-168 205 -168 525q0 226 58 471zM3166 1401q-116 0 -172.5 -114.5t-56.5 -246.5q0 -157 53 -365.5t163 -359.5t271 -151q135 0 190.5 116.5t55.5 264.5
q0 151 -57.5 354t-171.5 352.5t-275 149.5zM3277 1434q128 -67 198.5 -146t128.5 -219q119 -279 119 -672q41 128 41 238q0 370 -200 639q-104 139 -287 160zM2896 1233q-119 -192 -119 -467q0 -350 184 -573q117 -142 320 -148q-185 78 -275 193q-167 202 -167 524
q0 231 57 471z" />
    <glyph glyph-name="questiondown" unicode="&#xbf;" horiz-adv-x="1479" 
d="M193 -549q0 188 217 434q44 52 118.5 141t125 166.5t83.5 168.5t33 180q0 45 -12.5 100l-12.5 55q0 58 41 58q62 0 99 -100.5t37 -186.5q0 -130 -44 -251.5t-153 -371.5q-98 -236 -98 -331q0 -113 77.5 -200t204.5 -87q114 0 230 139q23 33 53 33q45 0 45 -53
q0 -72 -69.5 -157.5t-189.5 -144.5t-265 -59q-199 0 -359.5 122t-160.5 345zM651 1098l-245 245q-33 33 -33 58q0 39 24 69l250 246q37 37 58 37q41 0 61 -20l258 -258q33 -35 33 -62q0 -35 -37 -74l-242 -241q-35 -37 -65 -37q-25 0 -62 37zM664 -946q-143 45 -237.5 142
t-94.5 235q0 158 176 393q126 169 185.5 270t72.5 230q-79 -174 -311 -463q-205 -246 -205 -422q0 -99 49.5 -189.5t134.5 -145t184 -54.5q10 0 25 2t21 2zM553 1438l156 159q20 15 20 41q0 25 -29 25q-11 -3 -26 -17t-19 -16l-176 -176q-24 -24 -24 -49q0 -13 32 -45
l185 -180q18 -29 37 -29q28 0 28 25q0 15 -28 45l-152 151q-20 20 -20 29q0 21 16 37z" />
    <glyph glyph-name="grave" unicode="`" horiz-adv-x="2048" 
d="M676 2687h307q66 0 78 -61l94 -394q0 -5 4 -20t4 -25q0 -30 -10 -37.5t-43 -7.5h-131q-32 0 -57 41l-275 430q-16 34 -16 53q0 21 45 21zM750 2556l196 -315q6 -21 33 -21q25 0 25 16q0 11 -17 37l-184 295q-8 25 -29 25q-33 0 -33 -21q9 -9 9 -16z" />
    <glyph glyph-name="acute" unicode="&#xb4;" horiz-adv-x="2048" 
d="M1413 2613l-270 -430q-20 -41 -58 -41h-135q-49 0 -49 53q0 7 2 19t2 18l94 394q14 61 82 61h308q45 0 45 -16q0 -21 -21 -58zM1036 2560l-69 -287q0 -2 -2 -9t-2 -11q0 -29 12 -29q41 0 41 33l74 299q0 2 2 12t2 12q0 13 -17 13q-34 0 -41 -33z" />
    <glyph glyph-name="circumflex" unicode="&#x2c6;" horiz-adv-x="2048" 
d="M1032 2429l-196 -250q-33 -45 -95 -45h-131q-45 0 -45 20q0 70 246 451q31 48 53 67t66 19h250q54 0 94 -57q221 -392 221 -471q0 -25 -57 -25h-135q-33 0 -41 16zM1343 2261q0 7 -56.5 82t-94.5 123q-128 160 -160 160q-45 0 -233 -250q-20 -26 -51 -67t-31 -48
q0 -20 12 -20q10 0 68.5 64.5t95.5 107.5q33 35 77 81t62 46q9 0 26 -15t41.5 -40.5t42.5 -46.5t29 -34q34 -40 89 -99.5t67 -59.5q16 0 16 16z" />
    <glyph glyph-name="tilde" unicode="&#x2dc;" horiz-adv-x="2048" 
d="M721 2171h-148q-45 0 -45 37q0 171 67 321t224 150q63 0 108.5 -19.5t106 -58.5t99 -56.5t88.5 -17.5q67 0 77 111q9 28 29 28h156q53 0 53 -36q0 -157 -67.5 -310t-194.5 -153q-60 0 -109 21t-112 63t-105 63t-92 21q-58 0 -77.5 -52.5t-20.5 -87.5q-4 -9 -8.5 -16.5
t-28.5 -7.5zM1401 2552q-63 -176 -156 -176q-42 0 -81 18t-112 59.5t-119 61.5t-93 20q-80 0 -130.5 -58.5t-50.5 -129.5v-98q22 70 38.5 111.5t53.5 77.5t97 36q32 0 78 -22.5t115 -62t114.5 -59.5t89.5 -20q86 0 121 75t35 167z" />
    <glyph glyph-name="macron" unicode="&#xaf;" horiz-adv-x="2048" 
d="M1556 2519v-172q0 -98 -77 -98h-910q-73 0 -73 57v160q0 102 73 102h938q49 0 49 -49zM1434 2499h-795q-45 0 -45 -37t65 -37h754q62 0 62 37t-41 37z" />
    <glyph glyph-name="breve" unicode="&#x2d8;" horiz-adv-x="2048" 
d="M1319 2666h151q58 0 58 -36q0 -209 -158 -336t-375 -127q-137 0 -260.5 55.5t-197.5 160.5t-74 247q0 36 57 36h152q57 0 69 -32q26 -68 99.5 -101.5t154.5 -33.5q189 0 250 135q17 32 74 32zM1393 2523q-86 -98 -173.5 -135t-224.5 -37q-135 0 -225.5 37.5t-171.5 134.5
q48 -237 397 -237q164 0 262 50t136 187z" />
    <glyph glyph-name="dotaccent" unicode="&#x2d9;" horiz-adv-x="2048" 
d="M1069 2683l217 -209q29 -29 29 -49q0 -26 -21 -45l-217 -226q-28 -28 -49 -28q-17 0 -45 28l-217 213q-21 30 -21 54q0 20 29 49l193 205q32 32 49 32q29 0 53 -24zM897 2425l135 172q4 0 4 12q0 17 -12 17t-33 -21l-143 -143q-21 -34 -21 -41q0 -11 14 -27t15 -18
l143 -140q27 -24 41 -24q13 0 13 16q0 1 -21 33z" />
    <glyph glyph-name="dieresis" unicode="&#xa8;" horiz-adv-x="2048" 
d="M1454 2683l217 -209q29 -29 29 -49q0 -26 -21 -45l-217 -226q-28 -28 -49 -28q-17 0 -45 28l-217 213q-21 30 -21 54q0 20 29 49l193 205q32 32 49 32q29 0 53 -24zM672 2683l217 -209q29 -29 29 -49q0 -24 -21 -45l-217 -226q-28 -28 -49 -28q-17 0 -45 28l-217 213
q-21 27 -21 54q0 20 29 49l192 205q34 32 49 32q28 0 54 -24zM1282 2425l135 172q4 0 4 12t-12 12q-17 0 -33 -16l-143 -143q-21 -34 -21 -41q0 -11 14 -27t15 -18l143 -140q5 -3 16.5 -13.5t20.5 -10.5q17 0 17 16q0 1 -21 33zM500 2425l135 172q4 0 4 12t-12 12
q-17 0 -33 -16l-143 -143q-21 -30 -21 -41t14 -27t15 -18l143 -140q8 -6 13.5 -11.5t11.5 -9t12 -3.5q16 0 16 16q0 3 -20 33z" />
    <glyph glyph-name="ring" unicode="&#x2da;" horiz-adv-x="2048" 
d="M1024 2134q-131 0 -221 90t-90 221t89.5 221.5t221.5 90.5q85 0 157 -41t113 -113.5t41 -157.5q0 -132 -89.5 -221.5t-221.5 -89.5zM1020 2568q-51 0 -87 -35t-36 -88q0 -49 37 -86t86 -37q51 0 89 37t38 86q0 53 -37 88t-90 35zM1004 2638q8 4 28 4q80 0 132.5 -65
t52.5 -144q0 -64 -46 -139q103 73 103 168q0 77 -51.5 138.5t-137.5 61.5q-49 0 -81 -24zM1049 2245h-33q-77 0 -128.5 64.5t-51.5 144.5q0 72 41 139q-103 -78 -103 -168q0 -78 55 -139.5t146 -61.5q37 0 74 21z" />
    <glyph glyph-name="cedilla" unicode="&#xb8;" horiz-adv-x="2048" 
d="M1004 82h192l-86 -205q131 -17 221 -88.5t90 -194.5q0 -151 -106 -251.5t-258 -100.5q-117 0 -243 68.5t-126 173.5q0 78 62 78q28 0 77 -41t111 -41q53 0 92 31t39 79q0 87 -115 111q-41 9 -59 18.5t-18 42.5q0 8 3 18t6.5 19.5t6.5 20.5zM1167 -250q95 -78 95 -164
q0 -110 -86 -184q-62 -48 -201 -74q7 0 41 -4t45 -4q103 0 186.5 67.5t83.5 178.5q0 144 -164 184z" />
    <glyph glyph-name="hungarumlaut" unicode="&#x2dd;" horiz-adv-x="2048" 
d="M1688 2613l-271 -430q-20 -41 -57 -41h-135q-49 0 -49 37q0 6 2 27t2 26l94 394q12 61 82 61h307q45 0 45 -21q0 -18 -20 -53zM1032 2613l-270 -430q-20 -41 -57 -41h-136q-49 0 -49 37q0 6 2 27t2 26l94 394q14 61 82 61h308q45 0 45 -21q0 -16 -21 -53zM1311 2560
l-70 -287q0 -2 -2 -11t-2 -13q0 -25 20 -25q33 0 33 33l74 299q0 2 2 12t2 12q0 13 -20 13q-37 0 -37 -33zM655 2560l-69 -287q0 -2 -2 -11t-2 -13q0 -25 20 -25q12 0 22.5 10.5t10.5 22.5l74 299q0 2 2 12t2 12q0 13 -21 13q-37 0 -37 -33z" />
    <glyph glyph-name="ogonek" unicode="&#x2db;" horiz-adv-x="2048" 
d="M1090 0q-114 -79 -184 -155.5t-70 -172.5q0 -85 53.5 -138.5t142.5 -53.5q56 0 121.5 25t87.5 44q67 54 70 54q20 0 20 -131q0 -30 -19.5 -45.5t-62.5 -40.5q-202 -131 -368 -131q-134 0 -225 82t-91 204q0 150 88 253.5t244 205.5h193zM778 -147q-160 -114 -160 -291
q0 -237 275 -267q-201 74 -201 291q0 134 86 267z" />
    <glyph glyph-name="caron" unicode="&#x2c7;" horiz-adv-x="2048" 
d="M1032 2396l213 258q26 37 58 37h135q53 0 53 -29q0 -53 -81 -214.5t-144 -264.5q-33 -49 -86 -49h-250q-44 0 -66 18.5t-57 67.5l-100 160t-98.5 168.5t-43.5 109.5q0 33 45 33h131q61 0 95 -45zM1343 2564q0 16 -16 16q-10 0 -65.5 -58t-90.5 -97q-12 -13 -41.5 -48
t-57 -63t-40.5 -28q-15 0 -69 55t-70 76q-37 42 -95.5 105t-68.5 63q-12 0 -12 -17q0 -9 31 -51t51 -68q28 -45 114.5 -147t118.5 -102q24 0 80.5 64t79.5 99q38 49 94.5 124t56.5 77z" />
    <glyph glyph-name="endash" unicode="&#x2014;" horiz-adv-x="2642" 
d="M2560 1094v-283q0 -98 -78 -98h-2326q-39 0 -56.5 10t-17.5 47v270q0 103 74 103h2343q22 0 41.5 -14.5t19.5 -34.5zM139 999v-159q0 -58 29 -58q25 0 25 45v136q0 41 49 41h2191q61 0 61 32q0 33 -40 33h-2257q-58 0 -58 -70z" />
    <glyph glyph-name="AE" unicode="&#xc6;" horiz-adv-x="3805" 
d="M2454 1171v-708q0 -179 97 -233t292 -54q242 0 487.5 117.5t347.5 320.5q9 16 19 35t23.5 31t31.5 12q45 0 45 -114q0 -89 -51 -216.5t-125 -209.5q-155 -181 -463 -181q-38 0 -258 19t-350.5 29t-227.5 10q-109 0 -338.5 -12.5t-230.5 -12.5q-57 0 -57 41
q0 40 24.5 56.5t85.5 41.5q185 75 185 467v230q0 89 -25.5 114t-93.5 25h-98h-705q-112 0 -172 -74q-105 -129 -214.5 -299.5t-109.5 -249.5q0 -107 82.5 -160.5t196.5 -64.5q115 -9 115 -78q0 -35 -27.5 -52t-62.5 -17q-2 0 -193 16t-233 16q-72 0 -265 -14t-198 -14
q-70 0 -70 45q0 39 18 58.5t43 27.5t54 16q110 41 188 130t185 247l1208 1729q34 47 79 108t81 119.5t36 83.5q0 35 -14 49t-42.5 18.5t-41.5 10.5q-36 7 -89.5 23.5t-53.5 37.5q0 74 119 74q135 -9 364 -19t598 -10q61 0 239 -2t318 -2q77 0 213 4t135 4q49 0 49 -74
q0 -26 14.5 -212t14.5 -218q0 -143 -61 -143q-51 0 -62 90q-28 217 -168 291q-154 90 -503 90q-159 0 -235 -14.5t-113 -69t-37 -174.5v-537q0 -120 37 -174.5t151 -54.5q254 0 388 46t194 233q18 54 29 76t44 22q49 0 49 -78q0 -8 -2 -110t-2 -136q0 -69 10.5 -286.5
t10.5 -257.5q0 -95 -49 -95q-54 0 -66 123q-21 189 -143.5 242t-351.5 53h-107q-106 0 -149 -35.5t-43 -165.5zM1929 2605q123 -107 123 -319v-1745q0 -213 -119 -389q189 101 189 376v1770q0 255 -193 307zM2003 1315v926q0 147 -37 147q-23 0 -53 -34t-66.5 -87.5
t-40.5 -58.5q-379 -511 -598 -832q-106 -127 -106 -172q0 -16 15.5 -28.5t33.5 -12.5h729q78 0 100.5 34t22.5 118zM3154 2601q99 -9 195 -63.5t157 -129.5q4 9 4 33q0 76 -84.5 128t-156.5 52q-64 0 -115 -20zM3203 1634q-58 -89 -131 -151q28 -25 68.5 -64.5t62.5 -79.5
v295zM3629 442q-7 -6 -94 -73.5t-211 -128t-277 -84.5q-37 -7 -61 -17q90 -16 139 -16q160 0 302 86.5t202 232.5zM397 406q-106 -154 -221 -259l-29 -28q218 49 250 287z" />
    <glyph glyph-name="ordfeminine" unicode="&#xaa;" horiz-adv-x="1462" 
d="M1171 1692q5 0 38 8t36 8q41 0 41 -41q0 -56 -88 -103.5t-149 -47.5q-141 0 -185 106q-11 33 -28 33q-12 0 -45 -33q-111 -106 -328 -106q-95 0 -162.5 64.5t-67.5 168.5q0 144 99.5 231t257.5 121l196 45q24 6 28.5 15t4.5 63q0 30 -13.5 89.5t-59 116t-128.5 56.5
q-98 0 -98 -114q0 -7 2 -19t2 -18q0 -47 -61 -70.5t-119 -23.5q-45 0 -67.5 12.5t-22.5 64.5q0 122 130 196.5t304 74.5q397 0 397 -353v-376q0 -77 15 -122.5t71 -45.5zM1311 1290v-90q0 -82 -78 -82h-1004q-39 0 -56 10.5t-17 47.5v86q0 73 73 73h1008q74 0 74 -45z
M991 1589q-73 79 -73 226v401q0 204 -132 258q70 -96 70 -246v-401q0 -104 24 -159.5t111 -78.5zM528 2036q-249 -66 -249 -275q0 -213 208 -213q30 0 78 8q-221 45 -221 181q0 180 184 299zM471 2507q-176 -83 -176 -176q0 -54 33 -54q37 0 37 45q0 86 106 185zM815 1790
v209q0 57 -29 57q-106 -7 -188 -81.5t-82 -188.5q11 -111 168 -111q131 28 131 115zM225 1200q21 29 78 29h905q41 0 41 28q0 33 -57 33h-922q-49 0 -49 -65q0 -17 4 -25z" />
    <glyph glyph-name="Lslash" horiz-adv-x="2380" 
d="M578 1061l-209 -184q-29 -29 -66 -29q-53 0 -53 57q0 32 45 70l283 250v921q0 195 -63.5 291t-172 129t-166 48.5t-57.5 60.5q0 61 61 61q11 0 114 -11.5t195 -18.5t203 -7q227 0 414 22.5t160 22.5q22 0 43.5 -16.5t21.5 -40.5q0 -41 -47 -56t-110 -35.5t-104.5 -81
t-41.5 -187.5v-766l524 458q29 29 58 29q57 0 57 -53q0 -29 -33 -62l-606 -532v-901q0 -177 53.5 -254.5t225.5 -77.5q344 0 553 90q289 120 421 348q8 13 19 32.5t24.5 30.5t34.5 11q16 0 28.5 -22t12.5 -40q0 -99 -44.5 -223.5t-106.5 -206.5q-91 -121 -214 -164.5
t-298 -43.5q-42 0 -402 20t-454 20q-99 0 -312 -14t-209 -14q-60 0 -65 45q0 54 33 65l90 37q160 63 160 377v545zM1552 131q132 -16 152 -16q200 0 356 114q116 82 201 258q-139 -159 -303.5 -237t-405.5 -119zM479 2568q98 -102 127 -204t29 -271v-1528q0 -147 -24.5 -249
t-102.5 -185q132 57 164.5 158.5t32.5 288.5v1523q0 189 -41 312t-185 155z" />
    <glyph glyph-name="Oslash" unicode="&#xd8;" horiz-adv-x="3113" 
d="M2200 2658q185 -76 328 -200t242 -285t149.5 -344.5t50.5 -382.5q0 -203 -51 -409t-152 -390t-244 -323q-191 -188 -447 -282.5t-536 -94.5q-286 0 -504 65l-98 -217q-18 -53 -53 -53q-29 0 -49.5 17.5t-20.5 43.5q0 20 16 54l87 196q-370 155 -574.5 485.5t-204.5 739.5
q0 617 336 1003q130 151 305.5 262.5t374.5 170.5t401 59q297 0 533 -74l82 180q28 58 82 58q17 0 29 -18t12 -40q0 -9 -13 -40zM2068 2355l-929 -2101q244 -172 495 -172q415 0 660 377q221 345 221 831q0 307 -115 585.5t-332 479.5zM1040 332l930 2097q-256 184 -549 184
q-171 0 -325.5 -84t-259.5 -227q-218 -304 -218 -803q0 -337 102 -647t320 -520zM737 2437q-267 -169 -405.5 -476t-138.5 -646q0 -609 389 -979q281 -269 630 -303q-431 154 -643 397q-307 343 -307 873q0 204 50.5 410t150.5 380q81 143 274 344zM1712 2630
q386 -149 594 -471q262 -392 262 -881q0 -479 -205 -803q-87 -141 -278 -311q205 108 323 287q230 344 230 819q0 568 -336 991q-251 319 -590 369z" />
    <glyph glyph-name="OE" unicode="&#x152;" horiz-adv-x="4166" 
d="M2765 1167v-585q0 -216 53 -308q57 -110 283 -110q332 0 570 115t335 294q26 54 41 74.5t45 20.5q45 0 45 -95q0 -121 -64 -256t-157 -219q-146 -139 -414 -139q-6 0 -339.5 24.5t-549.5 24.5h-319q-107 0 -199.5 -7.5t-245.5 -25.5t-217.5 -23t-152.5 -5
q-264 0 -505.5 81.5t-424.5 250.5q-222 203 -320 479q-86 248 -86 553q0 298 113 578t322 483q121 117 271.5 206.5t337 142t394.5 52.5q65 0 548 -28.5t669 -28.5h757q78 0 205 8t123 8q70 0 70 -111q0 -30 12 -180t12 -180q0 -101 -14.5 -151t-63.5 -50q-57 0 -57 152
q0 312 -537 319l-245 4q-111 0 -170 -13t-92 -60.5t-33 -147.5v-569q0 -112 33 -164.5t135 -52.5h159q200 0 299 45q54 26 87.5 72t69 123t52 102.5t45.5 25.5q45 0 45 -118q0 -58 -4 -173t-4 -171q0 -44 10.5 -204t10.5 -198q0 -98 -58 -98q-26 0 -38 22.5t-16.5 53.5
t-10.5 75q-25 107 -82.5 164t-176 80t-343.5 23q-122 0 -167.5 -33t-45.5 -152zM2314 774v975q0 336 -205 569q-117 134 -288 214.5t-346 80.5q-180 0 -337.5 -85t-260.5 -234q-238 -340 -238 -860q0 -601 287 -975q137 -176 323 -282.5t389 -106.5q193 0 348 93.5
t241.5 256.5t86.5 354zM2023 2499q179 -170 261.5 -346.5t82.5 -415.5v-906q0 -224 -78.5 -397t-244.5 -323q389 167 389 704v922q0 292 -111 491q-92 170 -299 271zM737 2429q-165 -92 -292.5 -280.5t-194 -411.5t-66.5 -422q0 -346 103 -578q170 -393 528 -594
q143 -79 324 -98q-284 108 -481.5 287t-298.5 424t-101 551q0 205 61.5 415t172.5 387q79 132 245 320zM3502 2576l49 -12q178 -36 291 -172q0 84 -67 144.5t-150 60.5q-72 0 -123 -21zM3531 1602q-69 -98 -140 -148q77 -39 140 -115v263zM3965 446q-246 -207 -463 -258
l-123 -24q-7 -1 -16 -4t-21.5 -6.5t-23.5 -6.5q60 -12 143 -12q147 0 291.5 78t212.5 233z" />
    <glyph glyph-name="ordmasculine" unicode="&#xba;" horiz-adv-x="1462" 
d="M1307 2077q0 -245 -174.5 -403t-423.5 -158q-151 0 -277 60.5t-199 176.5t-73 270q0 143 75 277t207 215.5t295 81.5q132 0 264.5 -63t219 -182t86.5 -275zM1311 1290v-90q0 -82 -78 -82h-1004q-39 0 -56 10.5t-17 47.5v86q0 73 73 73h1008q74 0 74 -45zM799 2515
q130 -81 206 -231.5t76 -309.5q0 -170 -49 -282q107 106 107 282q0 215 -107 377q-85 128 -233 164zM483 2490q-278 -158 -278 -462q0 -241 155 -373q103 -79 299 -94q-32 8 -45 16q-183 64 -262 176q-86 118 -86 275q0 238 217 462zM680 2494q-114 0 -184 -98
q-62 -81 -62 -237q0 -189 93 -369t264 -180q122 0 185.5 95.5t63.5 223.5q0 108 -40.5 241.5t-122 228.5t-197.5 95zM225 1200q21 29 78 29h905q41 0 41 28q0 33 -57 33h-922q-49 0 -49 -65q0 -17 4 -25z" />
    <glyph glyph-name="ae" unicode="&#xe6;" horiz-adv-x="2716" 
d="M1544 995q-8 -32 -8 -110q0 -151 71 -302t203.5 -248t307.5 -97q218 0 405 135q20 18 34.5 31.5t31.5 23.5t32 10q45 0 45 -41q0 -57 -143 -172q-127 -110 -283.5 -177.5t-293.5 -67.5q-208 0 -369.5 71t-290.5 219q-222 -295 -618 -295q-488 0 -488 390q0 153 77.5 282
t213.5 193q217 104 557 147q62 7 100.5 26.5t38.5 100.5q0 294 -135 418q-100 94 -266 94q-127 0 -127 -160q0 -18 2 -48t2 -46q0 -75 -65 -98q-112 -53 -218 -53q-114 0 -114 102q0 138 100.5 236.5t257.5 148t318 49.5q314 0 524 -205q231 197 520 197q195 0 376.5 -126.5
t270.5 -328.5q58 -114 58 -204q0 -95 -131 -95h-996zM1151 508v274q0 107 -82 107q-177 0 -324 -129t-147 -314q0 -89 50.5 -163t170.5 -74q332 0 332 299zM1610 1118h450q90 0 145.5 20.5t55.5 90.5q0 98 -49 196.5t-137 162t-195 63.5q-140 0 -242 -145.5t-102 -297.5
q0 -56 12.5 -73t61.5 -17zM483 1597q-188 -94 -188 -249q0 -58 33 -58q13 0 22.5 13t9.5 20q16 142 123 274zM520 803q-141 -52 -216 -168t-75 -270q0 -140 71.5 -228t207.5 -88q-116 64 -164.5 132.5t-48.5 191.5q0 233 225 430zM1044 1593q92 -85 124 -181.5t32 -240.5
v-622q0 -168 -81.5 -282.5t-241.5 -205.5q282 62 372 353q212 -377 582 -377q6 0 21 2t20 2q-219 59 -352.5 150.5t-198 244.5t-64.5 395q13 404 267 717q-159 -88 -254 -340q-21 156 -63 242.5t-163 142.5zM2093 1626q186 -143 221 -455q0 -36 33 -36q11 0 20 26.5t9 46.5
q0 139 -77.5 254.5t-205.5 163.5z" />
    <glyph glyph-name="dotlessi" unicode="&#x131;" horiz-adv-x="1090" 
d="M758 1602v-1127q0 -122 28.5 -195t84 -109.5t145.5 -55.5q90 -22 90 -54q0 -61 -66 -61q16 0 -153 12.5t-305 12.5q-102 0 -226 -14.5t-135 -14.5q-65 0 -65 45q0 33 41 53q99 53 131 133.5t32 210.5v742q0 124 -39.5 177t-156.5 68q-78 11 -78 62q0 56 74 65
q169 22 284 69.5t197 102t92 54.5q33 0 33 -37q0 -6 -4 -56t-4 -83zM295 1454q74 -49 96.5 -121.5t22.5 -181.5v-86v-520q0 -137 -15.5 -229t-74.5 -177q151 71 151 279q0 21 -2 63t-2 60v532v107q0 114 -34.5 187.5t-141.5 86.5z" />
    <glyph glyph-name="lslash" horiz-adv-x="1036" 
d="M709 1733l249 221q26 24 41 24q62 0 62 -45q0 -28 -33 -61l-319 -283v-1175q0 -125 61.5 -207t183.5 -96q111 -12 111 -66q0 -22 -19 -39.5t-38 -17.5q-22 0 -177 14t-262 14q-134 0 -207.5 -4t-119.5 -10t-54 -6q-82 0 -82 49q0 54 66 78q88 39 113.5 107.5t25.5 187.5
v876l-192 -172q-16 -16 -29 -16q-57 0 -57 57q0 35 33 62l245 221v921q0 118 -51 172.5t-166 73.5q-61 17 -61 45q0 22 14 36t32 20t43 10.5t38 7.5q275 49 458 176q36 29 70 29q37 0 37 -70l-8 -114q-8 -78 -8 -238v-782zM303 143q119 75 119 267v1945q0 215 -160 254
q103 -86 103 -250v-1949q0 -137 -62 -267z" />
    <glyph glyph-name="oslash" unicode="&#xf8;" horiz-adv-x="2052" 
d="M1442 1675q144 -69 257.5 -189t175.5 -271t62 -314q0 -129 -33 -250.5t-99.5 -233t-157.5 -196.5q-263 -250 -656 -250q-135 0 -274 37l-70 -164q-15 -30 -45 -37q-53 0 -53 54q0 2 12 41l57 139q-239 95 -371 300t-132 470q0 240 116.5 460t330 355t487.5 135
q103 0 149 -7.5t145 -41.5l54 131q17 45 53 45q53 0 53 -61q0 -13 -8 -29zM1323 1405l-512 -1176q146 -139 311 -139q214 0 320 168.5t106 396.5q0 429 -225 750zM737 311l512 1184q-130 139 -303 139q-197 0 -323 -176q-103 -149 -103 -418q0 -197 53 -385t164 -344z
M1114 1655q151 -83 261 -238t166 -338t56 -350q0 -287 -127 -516q181 165 181 516q0 325 -176 627q-71 119 -154.5 193t-206.5 106zM573 1569q-193 -115 -303 -318t-110 -432q0 -331 188 -549q94 -106 220 -171.5t251 -65.5h94q-324 79 -467 213q-108 106 -166.5 261.5
t-58.5 311.5q0 216 93 412t259 338z" />
    <glyph glyph-name="oe" unicode="&#x153;" horiz-adv-x="3166" 
d="M1958 991q0 -282 94 -450q77 -139 214 -221t294 -82q256 0 418 168q68 57 90 57q37 0 37 -33q0 -75 -144 -205q-274 -254 -598 -254q-368 0 -655 308q-334 -308 -684 -308q-426 0 -664 226q-122 118 -183.5 281t-61.5 337q0 181 69 350t194 302t293.5 209.5t364.5 76.5
q268 0 484 -131q112 -69 233 -197q264 316 586 316q384 0 618 -324q123 -168 123 -332q0 -94 -123 -94h-999zM934 1630q-216 0 -319 -183t-103 -403q0 -198 70.5 -421.5t213.5 -380t347 -156.5q190 0 307 164q106 145 106 426q0 190 -73.5 415.5t-215 382t-333.5 156.5z
M2015 1110h479q164 0 164 135q0 143 -117 268t-264 125q-106 0 -184 -73t-119 -183.5t-41 -214.5q0 -57 82 -57zM586 1573q-134 -68 -233 -189t-152.5 -271.5t-53.5 -297.5q0 -177 71.5 -344.5t203.5 -273.5q195 -168 414 -168h82q-299 68 -455 209q-242 223 -242 581
q0 228 93 408.5t272 345.5zM1081 1651q160 -70 278.5 -231t178 -359t59.5 -381q0 -225 -94 -418q-14 -28 -24 -53q111 91 168 274q78 -192 244 -325t366 -133q40 0 90 8q-310 57 -479 221q-217 212 -217 569q0 363 262 697q-202 -138 -299 -492q-82 258 -205 432.5
t-328 190.5zM2482 1626q104 -77 167 -187t63 -231q0 -69 36 -69q33 0 33 53q0 141 -84 268.5t-215 165.5z" />
    <glyph glyph-name="germandbls" unicode="&#xdf;" horiz-adv-x="1925" 
d="M1323 1647q232 -69 368 -267t136 -446q0 -192 -57.5 -365.5t-176.5 -306.5q-110 -124 -261.5 -195t-311.5 -71q-123 0 -123 78q0 42 24.5 51.5t114.5 9.5q128 0 220.5 107t139 266t46.5 311q0 156 -48 309.5t-151.5 262t-259.5 129.5q-53 6 -77.5 14t-24.5 43
q0 110 73 123q119 22 196 113.5t110.5 212.5t33.5 243q0 142 -72.5 267.5t-197.5 125.5q-180 0 -258 -182t-78 -383v-1958q0 -123 -110 -123q-2 0 -47 4.5t-105 4.5q-67 0 -151.5 -14.5t-110.5 -14.5q-23 0 -40.5 19.5t-17.5 45.5q0 34 19 50.5t63 40.5q103 62 103 213v1466
q0 181 56.5 362t164.5 330q107 150 257.5 247t315.5 97q176 0 320 -82t225.5 -222t81.5 -310q0 -359 -389 -606zM578 2507q-234 -203 -234 -701v-1429q0 -96 -65 -230q127 87 127 279v1409q0 397 172 672zM1204 2650q139 -178 139 -385q0 -177 -90 -389q148 147 148 373
q0 287 -197 401zM1233 1475q135 -104 196.5 -282.5t61.5 -377.5q0 -311 -184 -573q110 71 159 184q78 179 78 381q0 315 -147 536q-59 94 -164 132z" />
    <glyph glyph-name="Aacute" unicode="&#xc1;" horiz-adv-x="2773" 
d="M1348 2765h82l1019 -2380q44 -105 108 -163t171 -91q65 -21 96 -36.5t31 -53.5q0 -66 -82 -66q17 0 -194.5 25t-329.5 25q-127 0 -326 -25t-182 -25q-62 0 -62 62q0 22 18 37.5t46 27t51 21.5q72 31 110 89.5t38 127.5q0 64 -25 139l-152 361q-28 64 -47.5 84.5t-90 29.5
t-255.5 9h-270q-235 0 -311.5 -27.5t-110.5 -87.5q-152 -255 -152 -475q0 -112 91.5 -189.5t195.5 -77.5q135 0 135 -69q0 -25 -35.5 -43.5t-66.5 -18.5q-3 0 -162.5 20.5t-251.5 20.5q-66 0 -205 -18t-151 -18q-92 0 -98 65q0 43 45 66l77 41q107 53 205 241q48 88 123 287
q63 150 119 299q57 143 117 282t94 215t107 236t153 336zM967 1143h532q115 0 115 49q0 13 -12.5 45.5t-20.5 52.5q-11 35 -121.5 285t-181.5 407q-30 78 -61 78q-25 0 -33 -32l-41 -78q-63 -133 -201 -451q-20 -50 -39 -95.5t-32.5 -83t-22.5 -75.5q0 -102 119 -102z
M1905 131q155 57 155 229q0 55 -13 106.5t-37 109t-48 116.5l-635 1487q-11 33 -29 33q-41 0 -41 -37q0 -11 9 -29l684 -1601q45 -119 45 -180q0 -118 -90 -234zM373 406l-21 -37q-66 -134 -221 -275q136 28 189 101t53 211zM1802 3469l-270 -430q-20 -41 -58 -41h-135
q-49 0 -49 53q0 7 2 19t2 18l94 394q14 61 82 61h308q45 0 45 -16q0 -21 -21 -58zM1425 3416l-69 -287q0 -2 -2 -9t-2 -11q0 -29 12 -29q41 0 41 33l74 299q0 2 2 12t2 12q0 13 -17 13q-34 0 -41 -33z" />
    <glyph glyph-name="Acircumflex" unicode="&#xc2;" horiz-adv-x="2773" 
d="M1348 2765h82l1019 -2380q44 -105 108 -163t171 -91q65 -21 96 -36.5t31 -53.5q0 -66 -82 -66q17 0 -194.5 25t-329.5 25q-127 0 -326 -25t-182 -25q-62 0 -62 62q0 22 18 37.5t46 27t51 21.5q72 31 110 89.5t38 127.5q0 64 -25 139l-152 361q-28 64 -47.5 84.5t-90 29.5
t-255.5 9h-270q-235 0 -311.5 -27.5t-110.5 -87.5q-152 -255 -152 -475q0 -112 91.5 -189.5t195.5 -77.5q135 0 135 -69q0 -25 -35.5 -43.5t-66.5 -18.5q-3 0 -162.5 20.5t-251.5 20.5q-66 0 -205 -18t-151 -18q-92 0 -98 65q0 43 45 66l77 41q107 53 205 241q48 88 123 287
q63 150 119 299q57 143 117 282t94 215t107 236t153 336zM967 1143h532q115 0 115 49q0 13 -12.5 45.5t-20.5 52.5q-11 35 -121.5 285t-181.5 407q-30 78 -61 78q-25 0 -33 -32l-41 -78q-63 -133 -201 -451q-20 -50 -39 -95.5t-32.5 -83t-22.5 -75.5q0 -102 119 -102z
M1905 131q155 57 155 229q0 55 -13 106.5t-37 109t-48 116.5l-635 1487q-11 33 -29 33q-41 0 -41 -37q0 -11 9 -29l684 -1601q45 -119 45 -180q0 -118 -90 -234zM373 406l-21 -37q-66 -134 -221 -275q136 28 189 101t53 211zM1388 3297l-196 -250q-33 -45 -95 -45h-131
q-45 0 -45 20q0 70 246 451q31 48 53 67t66 19h250q54 0 94 -57q221 -392 221 -471q0 -25 -57 -25h-135q-33 0 -41 16zM1699 3129q0 7 -56.5 82t-94.5 123q-128 160 -160 160q-45 0 -233 -250q-20 -26 -51 -67t-31 -48q0 -20 12 -20q10 0 68.5 64.5t95.5 107.5q33 35 77 81
t62 46q9 0 26 -15t41.5 -40.5t42.5 -46.5t29 -34q34 -40 89 -99.5t67 -59.5q16 0 16 16z" />
    <glyph glyph-name="Adieresis" unicode="&#xc4;" horiz-adv-x="2773" 
d="M1348 2765h82l1019 -2380q44 -105 108 -163t171 -91q65 -21 96 -36.5t31 -53.5q0 -66 -82 -66q17 0 -194.5 25t-329.5 25q-127 0 -326 -25t-182 -25q-62 0 -62 62q0 22 18 37.5t46 27t51 21.5q72 31 110 89.5t38 127.5q0 64 -25 139l-152 361q-28 64 -47.5 84.5t-90 29.5
t-255.5 9h-270q-235 0 -311.5 -27.5t-110.5 -87.5q-152 -255 -152 -475q0 -112 91.5 -189.5t195.5 -77.5q135 0 135 -69q0 -25 -35.5 -43.5t-66.5 -18.5q-3 0 -162.5 20.5t-251.5 20.5q-66 0 -205 -18t-151 -18q-92 0 -98 65q0 43 45 66l77 41q107 53 205 241q48 88 123 287
q63 150 119 299q57 143 117 282t94 215t107 236t153 336zM967 1143h532q115 0 115 49q0 13 -12.5 45.5t-20.5 52.5q-11 35 -121.5 285t-181.5 407q-30 78 -61 78q-25 0 -33 -32l-41 -78q-63 -133 -201 -451q-20 -50 -39 -95.5t-32.5 -83t-22.5 -75.5q0 -102 119 -102z
M1905 131q155 57 155 229q0 55 -13 106.5t-37 109t-48 116.5l-635 1487q-11 33 -29 33q-41 0 -41 -37q0 -11 9 -29l684 -1601q45 -119 45 -180q0 -118 -90 -234zM373 406l-21 -37q-66 -134 -221 -275q136 28 189 101t53 211zM1794 3535l217 -209q29 -29 29 -49
q0 -26 -21 -45l-217 -226q-28 -28 -49 -28q-17 0 -45 28l-217 213q-21 30 -21 54q0 20 29 49l193 205q32 32 49 32q29 0 53 -24zM1012 3535l217 -209q29 -29 29 -49q0 -24 -21 -45l-217 -226q-28 -28 -49 -28q-17 0 -45 28l-217 213q-21 27 -21 54q0 20 29 49l192 205
q34 32 49 32q28 0 54 -24zM1622 3277l135 172q4 0 4 12t-12 12q-17 0 -33 -16l-143 -143q-21 -34 -21 -41q0 -11 14 -27t15 -18l143 -140q5 -3 16.5 -13.5t20.5 -10.5q17 0 17 16q0 1 -21 33zM840 3277l135 172q4 0 4 12t-12 12q-17 0 -33 -16l-143 -143q-21 -30 -21 -41
t14 -27t15 -18l143 -140q8 -6 13.5 -11.5t11.5 -9t12 -3.5q16 0 16 16q0 3 -20 33z" />
    <glyph glyph-name="Agrave" unicode="&#xc0;" horiz-adv-x="2773" 
d="M1348 2765h82l1019 -2380q44 -105 108 -163t171 -91q65 -21 96 -36.5t31 -53.5q0 -66 -82 -66q17 0 -194.5 25t-329.5 25q-127 0 -326 -25t-182 -25q-62 0 -62 62q0 22 18 37.5t46 27t51 21.5q72 31 110 89.5t38 127.5q0 64 -25 139l-152 361q-28 64 -47.5 84.5t-90 29.5
t-255.5 9h-270q-235 0 -311.5 -27.5t-110.5 -87.5q-152 -255 -152 -475q0 -112 91.5 -189.5t195.5 -77.5q135 0 135 -69q0 -25 -35.5 -43.5t-66.5 -18.5q-3 0 -162.5 20.5t-251.5 20.5q-66 0 -205 -18t-151 -18q-92 0 -98 65q0 43 45 66l77 41q107 53 205 241q48 88 123 287
q63 150 119 299q57 143 117 282t94 215t107 236t153 336zM967 1143h532q115 0 115 49q0 13 -12.5 45.5t-20.5 52.5q-11 35 -121.5 285t-181.5 407q-30 78 -61 78q-25 0 -33 -32l-41 -78q-63 -133 -201 -451q-20 -50 -39 -95.5t-32.5 -83t-22.5 -75.5q0 -102 119 -102z
M1905 131q155 57 155 229q0 55 -13 106.5t-37 109t-48 116.5l-635 1487q-11 33 -29 33q-41 0 -41 -37q0 -11 9 -29l684 -1601q45 -119 45 -180q0 -118 -90 -234zM373 406l-21 -37q-66 -134 -221 -275q136 28 189 101t53 211zM971 3543h307q66 0 78 -61l94 -394q0 -5 4 -20
t4 -25q0 -30 -10 -37.5t-43 -7.5h-131q-32 0 -57 41l-275 430q-16 34 -16 53q0 21 45 21zM1045 3412l196 -315q6 -21 33 -21q25 0 25 16q0 11 -17 37l-184 295q-8 25 -29 25q-33 0 -33 -21q9 -9 9 -16z" />
    <glyph glyph-name="Aring" unicode="&#xc5;" horiz-adv-x="2773" 
d="M1348 2765h82l1019 -2380q44 -105 108 -163t171 -91q65 -21 96 -36.5t31 -53.5q0 -66 -82 -66q17 0 -194.5 25t-329.5 25q-127 0 -326 -25t-182 -25q-62 0 -62 62q0 22 18 37.5t46 27t51 21.5q72 31 110 89.5t38 127.5q0 64 -25 139l-152 361q-28 64 -47.5 84.5t-90 29.5
t-255.5 9h-270q-235 0 -311.5 -27.5t-110.5 -87.5q-152 -255 -152 -475q0 -112 91.5 -189.5t195.5 -77.5q135 0 135 -69q0 -25 -35.5 -43.5t-66.5 -18.5q-3 0 -162.5 20.5t-251.5 20.5q-66 0 -205 -18t-151 -18q-92 0 -98 65q0 43 45 66l77 41q107 53 205 241q48 88 123 287
q63 150 119 299q57 143 117 282t94 215t107 236t153 336zM967 1143h532q115 0 115 49q0 13 -12.5 45.5t-20.5 52.5q-11 35 -121.5 285t-181.5 407q-30 78 -61 78q-25 0 -33 -32l-41 -78q-63 -133 -201 -451q-20 -50 -39 -95.5t-32.5 -83t-22.5 -75.5q0 -102 119 -102z
M1905 131q155 57 155 229q0 55 -13 106.5t-37 109t-48 116.5l-635 1487q-11 33 -29 33q-41 0 -41 -37q0 -11 9 -29l684 -1601q45 -119 45 -180q0 -118 -90 -234zM373 406l-21 -37q-66 -134 -221 -275q136 28 189 101t53 211zM1389 2916q-131 0 -221 90t-90 221t89.5 221.5
t221.5 90.5q85 0 157 -41t113 -113.5t41 -157.5q0 -132 -89.5 -221.5t-221.5 -89.5zM1385 3350q-51 0 -87 -35t-36 -88q0 -49 37 -86t86 -37q51 0 89 37t38 86q0 53 -37 88t-90 35zM1369 3420q8 4 28 4q80 0 132.5 -65t52.5 -144q0 -64 -46 -139q103 73 103 168
q0 77 -51.5 138.5t-137.5 61.5q-49 0 -81 -24zM1414 3027h-33q-77 0 -128.5 64.5t-51.5 144.5q0 72 41 139q-103 -78 -103 -168q0 -78 55 -139.5t146 -61.5q37 0 74 21z" />
    <glyph glyph-name="Atilde" unicode="&#xc3;" horiz-adv-x="2773" 
d="M1348 2765h82l1019 -2380q44 -105 108 -163t171 -91q65 -21 96 -36.5t31 -53.5q0 -66 -82 -66q17 0 -194.5 25t-329.5 25q-127 0 -326 -25t-182 -25q-62 0 -62 62q0 22 18 37.5t46 27t51 21.5q72 31 110 89.5t38 127.5q0 64 -25 139l-152 361q-28 64 -47.5 84.5t-90 29.5
t-255.5 9h-270q-235 0 -311.5 -27.5t-110.5 -87.5q-152 -255 -152 -475q0 -112 91.5 -189.5t195.5 -77.5q135 0 135 -69q0 -25 -35.5 -43.5t-66.5 -18.5q-3 0 -162.5 20.5t-251.5 20.5q-66 0 -205 -18t-151 -18q-92 0 -98 65q0 43 45 66l77 41q107 53 205 241q48 88 123 287
q63 150 119 299q57 143 117 282t94 215t107 236t153 336zM967 1143h532q115 0 115 49q0 13 -12.5 45.5t-20.5 52.5q-11 35 -121.5 285t-181.5 407q-30 78 -61 78q-25 0 -33 -32l-41 -78q-63 -133 -201 -451q-20 -50 -39 -95.5t-32.5 -83t-22.5 -75.5q0 -102 119 -102z
M1905 131q155 57 155 229q0 55 -13 106.5t-37 109t-48 116.5l-635 1487q-11 33 -29 33q-41 0 -41 -37q0 -11 9 -29l684 -1601q45 -119 45 -180q0 -118 -90 -234zM373 406l-21 -37q-66 -134 -221 -275q136 28 189 101t53 211zM1081 3007h-148q-45 0 -45 37q0 171 67 321
t224 150q63 0 108.5 -19.5t106 -58.5t99 -56.5t88.5 -17.5q67 0 77 111q9 28 29 28h156q53 0 53 -36q0 -157 -67.5 -310t-194.5 -153q-60 0 -109 21t-112 63t-105 63t-92 21q-58 0 -77.5 -52.5t-20.5 -87.5q-4 -9 -8.5 -16.5t-28.5 -7.5zM1761 3388q-63 -176 -156 -176
q-42 0 -81 18t-112 59.5t-119 61.5t-93 20q-80 0 -130.5 -58.5t-50.5 -129.5v-98q22 70 38.5 111.5t53.5 77.5t97 36q32 0 78 -22.5t115 -62t114.5 -59.5t89.5 -20q86 0 121 75t35 167z" />
    <glyph glyph-name="Ccedilla" unicode="&#xc7;" horiz-adv-x="2724" 
d="M2392 340q-387 -381 -917 -393q-7 -17 -14.5 -34.5t-14.5 -35.5q133 -17 222 -88.5t89 -194.5q0 -151 -106 -251.5t-258 -100.5q-115 0 -242 68.5t-127 173.5q0 30 16 54t45 24q30 0 78 -41t115 -41q49 0 88 31t39 79q0 87 -115 111q-78 17 -78 70q0 10 7 24.5t10 24.5
l61 135q-493 53 -811 401q-164 180 -250 419.5t-86 494.5q0 192 40 376.5t122 354.5t207 313q113 130 269.5 237t336 168.5t352.5 61.5q337 0 758 -217q157 -86 209 -86q17 0 59 45t64 45q66 0 66 -110q0 -35 -6.5 -139t-6.5 -181q0 -33 12.5 -176.5t12.5 -179.5
q0 -131 -58 -131q-37 0 -49.5 27t-31.5 91q-126 353 -357 578q-145 139 -313 215t-322 76q-201 0 -380 -106t-291 -267q-205 -296 -205 -811q0 -463 225 -795q87 -133 209 -237t269.5 -162.5t299.5 -58.5q148 0 295.5 50t279.5 140t236 203q57 65 86 65q41 0 41 -41
q0 -108 -180 -278zM913 2552q-232 -97 -393 -300.5t-240 -461t-79 -516.5q0 -267 105.5 -524t295.5 -435q132 -124 325 -215.5t355 -91.5q74 0 115 4q-249 35 -452.5 139t-352.5 271.5t-229 383.5t-80 468q0 407 154.5 711t475.5 567zM1503 -250q99 -81 99 -143
q0 -128 -91 -205q-60 -48 -200 -74q7 0 41 -4t45 -4q99 0 186.5 68t87.5 178q0 143 -168 184zM2081 2466q230 -177 348 -402l45 -77q6 -19 20 -33q-16 172 -132.5 327.5t-280.5 184.5z" />
    <glyph glyph-name="Eacute" unicode="&#xc9;" horiz-adv-x="2413" 
d="M557 586v1618q0 212 -59.5 309t-235.5 117q-131 13 -131 73q0 58 152 58q9 0 152 -8.5t342.5 -14.5t492.5 -6q416 0 665.5 12.5t194.5 12.5q45 0 45 -66q9 -98 23 -247.5t14 -182.5q0 -172 -86 -172q-45 0 -45 74q0 211 -127 303q-134 94 -443 94q-23 0 -81 2t-91 2
q-156 0 -237 -33q-94 -36 -94 -172v-663q0 -148 143 -148h201q236 0 323 74q42 35 64.5 78.5t48.5 107t45.5 88.5t54.5 25q49 0 49 -98q0 -38 -8 -121t-8 -105q0 -147 16.5 -316t16.5 -216q0 -107 -58 -107q-31 0 -46 25.5t-24 75t-11 55.5q-37 172 -156 217
q-122 45 -459 45q-102 0 -147 -32.5t-45 -131.5v-692q0 -131 26.5 -203.5t87 -102.5t168.5 -30q330 0 541 78q320 118 430 344q8 16 18.5 39.5t24.5 39t35 15.5q45 0 45 -73q0 -156 -74 -312q-75 -160 -223.5 -247.5t-329.5 -87.5q-32 0 -187.5 13t-317.5 22.5t-334 9.5
q-269 0 -435 -8.5t-139 -8.5q-65 0 -65 41q0 51 28 62l78 32q107 43 139.5 164t32.5 279zM492 2605q79 -79 100.5 -161.5t21.5 -219.5v-1614q0 -298 -135 -458q131 42 168 185.5t37 391.5v1409v90q0 152 -36 246t-156 131zM1769 1622q-65 -96 -127 -143q67 -36 127 -111v254
zM1741 2601q195 -38 303 -152q20 -20 33 -32q0 81 -64.5 140.5t-148.5 59.5q-63 0 -123 -16zM2212 442q-151 -127 -297.5 -197t-341.5 -98q80 -16 147 -16q166 0 320 98q122 77 172 213zM1597 3469l-270 -430q-20 -41 -58 -41h-135q-49 0 -49 53q0 7 2 19t2 18l94 394
q14 61 82 61h308q45 0 45 -16q0 -21 -21 -58zM1220 3416l-69 -287q0 -2 -2 -9t-2 -11q0 -29 12 -29q41 0 41 33l74 299q0 2 2 12t2 12q0 13 -17 13q-34 0 -41 -33z" />
    <glyph glyph-name="Ecircumflex" unicode="&#xca;" horiz-adv-x="2413" 
d="M557 586v1618q0 212 -59.5 309t-235.5 117q-131 13 -131 73q0 58 152 58q9 0 152 -8.5t342.5 -14.5t492.5 -6q416 0 665.5 12.5t194.5 12.5q45 0 45 -66q9 -98 23 -247.5t14 -182.5q0 -172 -86 -172q-45 0 -45 74q0 211 -127 303q-134 94 -443 94q-23 0 -81 2t-91 2
q-156 0 -237 -33q-94 -36 -94 -172v-663q0 -148 143 -148h201q236 0 323 74q42 35 64.5 78.5t48.5 107t45.5 88.5t54.5 25q49 0 49 -98q0 -38 -8 -121t-8 -105q0 -147 16.5 -316t16.5 -216q0 -107 -58 -107q-31 0 -46 25.5t-24 75t-11 55.5q-37 172 -156 217
q-122 45 -459 45q-102 0 -147 -32.5t-45 -131.5v-692q0 -131 26.5 -203.5t87 -102.5t168.5 -30q330 0 541 78q320 118 430 344q8 16 18.5 39.5t24.5 39t35 15.5q45 0 45 -73q0 -156 -74 -312q-75 -160 -223.5 -247.5t-329.5 -87.5q-32 0 -187.5 13t-317.5 22.5t-334 9.5
q-269 0 -435 -8.5t-139 -8.5q-65 0 -65 41q0 51 28 62l78 32q107 43 139.5 164t32.5 279zM492 2605q79 -79 100.5 -161.5t21.5 -219.5v-1614q0 -298 -135 -458q131 42 168 185.5t37 391.5v1409v90q0 152 -36 246t-156 131zM1769 1622q-65 -96 -127 -143q67 -36 127 -111v254
zM1741 2601q195 -38 303 -152q20 -20 33 -32q0 81 -64.5 140.5t-148.5 59.5q-63 0 -123 -16zM2212 442q-151 -127 -297.5 -197t-341.5 -98q80 -16 147 -16q166 0 320 98q122 77 172 213zM1212 3297l-196 -250q-33 -45 -95 -45h-131q-45 0 -45 20q0 70 246 451q31 48 53 67
t66 19h250q54 0 94 -57q221 -392 221 -471q0 -25 -57 -25h-135q-33 0 -41 16zM1523 3129q0 7 -56.5 82t-94.5 123q-128 160 -160 160q-45 0 -233 -250q-20 -26 -51 -67t-31 -48q0 -20 12 -20q10 0 68.5 64.5t95.5 107.5q33 35 77 81t62 46q9 0 26 -15t41.5 -40.5t42.5 -46.5
t29 -34q34 -40 89 -99.5t67 -59.5q16 0 16 16z" />
    <glyph glyph-name="Edieresis" unicode="&#xcb;" horiz-adv-x="2413" 
d="M557 586v1618q0 212 -59.5 309t-235.5 117q-131 13 -131 73q0 58 152 58q9 0 152 -8.5t342.5 -14.5t492.5 -6q416 0 665.5 12.5t194.5 12.5q45 0 45 -66q9 -98 23 -247.5t14 -182.5q0 -172 -86 -172q-45 0 -45 74q0 211 -127 303q-134 94 -443 94q-23 0 -81 2t-91 2
q-156 0 -237 -33q-94 -36 -94 -172v-663q0 -148 143 -148h201q236 0 323 74q42 35 64.5 78.5t48.5 107t45.5 88.5t54.5 25q49 0 49 -98q0 -38 -8 -121t-8 -105q0 -147 16.5 -316t16.5 -216q0 -107 -58 -107q-31 0 -46 25.5t-24 75t-11 55.5q-37 172 -156 217
q-122 45 -459 45q-102 0 -147 -32.5t-45 -131.5v-692q0 -131 26.5 -203.5t87 -102.5t168.5 -30q330 0 541 78q320 118 430 344q8 16 18.5 39.5t24.5 39t35 15.5q45 0 45 -73q0 -156 -74 -312q-75 -160 -223.5 -247.5t-329.5 -87.5q-32 0 -187.5 13t-317.5 22.5t-334 9.5
q-269 0 -435 -8.5t-139 -8.5q-65 0 -65 41q0 51 28 62l78 32q107 43 139.5 164t32.5 279zM492 2605q79 -79 100.5 -161.5t21.5 -219.5v-1614q0 -298 -135 -458q131 42 168 185.5t37 391.5v1409v90q0 152 -36 246t-156 131zM1769 1622q-65 -96 -127 -143q67 -36 127 -111v254
zM1741 2601q195 -38 303 -152q20 -20 33 -32q0 81 -64.5 140.5t-148.5 59.5q-63 0 -123 -16zM2212 442q-151 -127 -297.5 -197t-341.5 -98q80 -16 147 -16q166 0 320 98q122 77 172 213zM1647 3535l217 -209q29 -29 29 -49q0 -26 -21 -45l-217 -226q-28 -28 -49 -28
q-17 0 -45 28l-217 213q-21 30 -21 54q0 20 29 49l193 205q32 32 49 32q29 0 53 -24zM865 3535l217 -209q29 -29 29 -49q0 -24 -21 -45l-217 -226q-28 -28 -49 -28q-17 0 -45 28l-217 213q-21 27 -21 54q0 20 29 49l192 205q34 32 49 32q28 0 54 -24zM1475 3277l135 172
q4 0 4 12t-12 12q-17 0 -33 -16l-143 -143q-21 -34 -21 -41q0 -11 14 -27t15 -18l143 -140q5 -3 16.5 -13.5t20.5 -10.5q17 0 17 16q0 1 -21 33zM693 3277l135 172q4 0 4 12t-12 12q-17 0 -33 -16l-143 -143q-21 -30 -21 -41t14 -27t15 -18l143 -140q8 -6 13.5 -11.5
t11.5 -9t12 -3.5q16 0 16 16q0 3 -20 33z" />
    <glyph glyph-name="Egrave" unicode="&#xc8;" horiz-adv-x="2413" 
d="M557 586v1618q0 212 -59.5 309t-235.5 117q-131 13 -131 73q0 58 152 58q9 0 152 -8.5t342.5 -14.5t492.5 -6q416 0 665.5 12.5t194.5 12.5q45 0 45 -66q9 -98 23 -247.5t14 -182.5q0 -172 -86 -172q-45 0 -45 74q0 211 -127 303q-134 94 -443 94q-23 0 -81 2t-91 2
q-156 0 -237 -33q-94 -36 -94 -172v-663q0 -148 143 -148h201q236 0 323 74q42 35 64.5 78.5t48.5 107t45.5 88.5t54.5 25q49 0 49 -98q0 -38 -8 -121t-8 -105q0 -147 16.5 -316t16.5 -216q0 -107 -58 -107q-31 0 -46 25.5t-24 75t-11 55.5q-37 172 -156 217
q-122 45 -459 45q-102 0 -147 -32.5t-45 -131.5v-692q0 -131 26.5 -203.5t87 -102.5t168.5 -30q330 0 541 78q320 118 430 344q8 16 18.5 39.5t24.5 39t35 15.5q45 0 45 -73q0 -156 -74 -312q-75 -160 -223.5 -247.5t-329.5 -87.5q-32 0 -187.5 13t-317.5 22.5t-334 9.5
q-269 0 -435 -8.5t-139 -8.5q-65 0 -65 41q0 51 28 62l78 32q107 43 139.5 164t32.5 279zM492 2605q79 -79 100.5 -161.5t21.5 -219.5v-1614q0 -298 -135 -458q131 42 168 185.5t37 391.5v1409v90q0 152 -36 246t-156 131zM1769 1622q-65 -96 -127 -143q67 -36 127 -111v254
zM1741 2601q195 -38 303 -152q20 -20 33 -32q0 81 -64.5 140.5t-148.5 59.5q-63 0 -123 -16zM2212 442q-151 -127 -297.5 -197t-341.5 -98q80 -16 147 -16q166 0 320 98q122 77 172 213zM823 3543h307q66 0 78 -61l94 -394q0 -5 4 -20t4 -25q0 -30 -10 -37.5t-43 -7.5h-131
q-32 0 -57 41l-275 430q-16 34 -16 53q0 21 45 21zM897 3412l196 -315q6 -21 33 -21q25 0 25 16q0 11 -17 37l-184 295q-8 25 -29 25q-33 0 -33 -21q9 -9 9 -16z" />
    <glyph glyph-name="Eth" horiz-adv-x="3105" 
d="M565 1348h-262q-86 0 -86 57q0 65 94 65h254v639q0 476 -356 476q-98 0 -98 73q0 22 18 40t43 18q35 0 162.5 -6.5t255.5 -6.5q85 0 322 11.5t356 16.5t305 5q586 0 967 -315q202 -164 322 -406t120 -499q0 -316 -108 -606t-318 -509q-204 -213 -461.5 -315t-562.5 -102
q-66 0 -356 18t-340 18q-81 0 -293 -16t-215 -16q-66 0 -66 53q0 42 42 57.5t109.5 45t109.5 112.5t42 252v840zM1008 1348v-750q0 -190 60 -292.5t179 -140.5t318 -38q297 0 514.5 167.5t330.5 435t113 556.5q0 275 -85.5 528t-258.5 435q-102 108 -232.5 184t-278 116
t-292.5 40q-122 0 -200 -19.5t-123 -81t-45 -178.5v-840h565q86 0 86 -57q0 -65 -82 -65h-569zM1729 2585q360 -123 573 -406q274 -368 274 -848q0 -343 -98.5 -585.5t-335.5 -479.5q270 165 389 444t119 629q0 275 -111 555t-321 472t-489 219zM467 2564
q38 -32 94.5 -122.5t56.5 -237.5v-1692q0 -150 -42.5 -243t-71.5 -126q46 16 115 94t69 263v1728q0 194 -83 261.5t-138 74.5z" />
    <glyph glyph-name="Iacute" unicode="&#xcd;" horiz-adv-x="1569" 
d="M573 586v1609q0 146 -35.5 229t-115 127.5t-225.5 74.5q-74 20 -74 49q0 82 57 82q-12 0 160.5 -12.5t364.5 -12.5q182 0 334.5 12.5t160.5 12.5q127 0 127 -54q0 -41 -25 -52.5t-77 -20.5q-201 -39 -201 -332v-1630q0 -181 24 -293.5t108.5 -184.5t256.5 -88
q82 -9 82 -61q0 -57 -102 -57q-4 0 -243 16t-331 16q-44 0 -257 -14t-222 -14q-66 0 -66 57q0 32 22.5 47t84.5 27q192 39 192 467zM455 2601q98 -82 135 -162t37 -211v-1663q0 -140 -22 -236t-97 -173q127 50 160 163q24 82 24 259v1630q0 162 -49.5 259.5t-187.5 133.5z
M1180 3469l-270 -430q-20 -41 -58 -41h-135q-49 0 -49 53q0 7 2 19t2 18l94 394q14 61 82 61h308q45 0 45 -16q0 -21 -21 -58zM803 3416l-69 -287q0 -2 -2 -9t-2 -11q0 -29 12 -29q41 0 41 33l74 299q0 2 2 12t2 12q0 13 -17 13q-34 0 -41 -33z" />
    <glyph glyph-name="Icircumflex" unicode="&#xce;" horiz-adv-x="1569" 
d="M573 586v1609q0 146 -35.5 229t-115 127.5t-225.5 74.5q-74 20 -74 49q0 82 57 82q-12 0 160.5 -12.5t364.5 -12.5q182 0 334.5 12.5t160.5 12.5q127 0 127 -54q0 -41 -25 -52.5t-77 -20.5q-201 -39 -201 -332v-1630q0 -181 24 -293.5t108.5 -184.5t256.5 -88
q82 -9 82 -61q0 -57 -102 -57q-4 0 -243 16t-331 16q-44 0 -257 -14t-222 -14q-66 0 -66 57q0 32 22.5 47t84.5 27q192 39 192 467zM455 2601q98 -82 135 -162t37 -211v-1663q0 -140 -22 -236t-97 -173q127 50 160 163q24 82 24 259v1630q0 162 -49.5 259.5t-187.5 133.5z
M766 3297l-196 -250q-33 -45 -95 -45h-131q-45 0 -45 20q0 70 246 451q31 48 53 67t66 19h250q54 0 94 -57q221 -392 221 -471q0 -25 -57 -25h-135q-33 0 -41 16zM1077 3129q0 7 -56.5 82t-94.5 123q-128 160 -160 160q-45 0 -233 -250q-20 -26 -51 -67t-31 -48
q0 -20 12 -20q10 0 68.5 64.5t95.5 107.5q33 35 77 81t62 46q9 0 26 -15t41.5 -40.5t42.5 -46.5t29 -34q34 -40 89 -99.5t67 -59.5q16 0 16 16z" />
    <glyph glyph-name="Idieresis" unicode="&#xcf;" horiz-adv-x="1569" 
d="M573 586v1609q0 146 -35.5 229t-115 127.5t-225.5 74.5q-74 20 -74 49q0 82 57 82q-12 0 160.5 -12.5t364.5 -12.5q182 0 334.5 12.5t160.5 12.5q127 0 127 -54q0 -41 -25 -52.5t-77 -20.5q-201 -39 -201 -332v-1630q0 -181 24 -293.5t108.5 -184.5t256.5 -88
q82 -9 82 -61q0 -57 -102 -57q-4 0 -243 16t-331 16q-44 0 -257 -14t-222 -14q-66 0 -66 57q0 32 22.5 47t84.5 27q192 39 192 467zM455 2601q98 -82 135 -162t37 -211v-1663q0 -140 -22 -236t-97 -173q127 50 160 163q24 82 24 259v1630q0 162 -49.5 259.5t-187.5 133.5z
M1225 3535l217 -209q29 -29 29 -49q0 -26 -21 -45l-217 -226q-28 -28 -49 -28q-17 0 -45 28l-217 213q-21 30 -21 54q0 20 29 49l193 205q32 32 49 32q29 0 53 -24zM443 3535l217 -209q29 -29 29 -49q0 -24 -21 -45l-217 -226q-28 -28 -49 -28q-17 0 -45 28l-217 213
q-21 27 -21 54q0 20 29 49l192 205q34 32 49 32q28 0 54 -24zM1053 3277l135 172q4 0 4 12t-12 12q-17 0 -33 -16l-143 -143q-21 -34 -21 -41q0 -11 14 -27t15 -18l143 -140q5 -3 16.5 -13.5t20.5 -10.5q17 0 17 16q0 1 -21 33zM271 3277l135 172q4 0 4 12t-12 12
q-17 0 -33 -16l-143 -143q-21 -30 -21 -41t14 -27t15 -18l143 -140q8 -6 13.5 -11.5t11.5 -9t12 -3.5q16 0 16 16q0 3 -20 33z" />
    <glyph glyph-name="Igrave" unicode="&#xcc;" horiz-adv-x="1569" 
d="M573 586v1609q0 146 -35.5 229t-115 127.5t-225.5 74.5q-74 20 -74 49q0 82 57 82q-12 0 160.5 -12.5t364.5 -12.5q182 0 334.5 12.5t160.5 12.5q127 0 127 -54q0 -41 -25 -52.5t-77 -20.5q-201 -39 -201 -332v-1630q0 -181 24 -293.5t108.5 -184.5t256.5 -88
q82 -9 82 -61q0 -57 -102 -57q-4 0 -243 16t-331 16q-44 0 -257 -14t-222 -14q-66 0 -66 57q0 32 22.5 47t84.5 27q192 39 192 467zM455 2601q98 -82 135 -162t37 -211v-1663q0 -140 -22 -236t-97 -173q127 50 160 163q24 82 24 259v1630q0 162 -49.5 259.5t-187.5 133.5z
M406 3543h307q66 0 78 -61l94 -394q0 -5 4 -20t4 -25q0 -30 -10 -37.5t-43 -7.5h-131q-32 0 -57 41l-275 430q-16 34 -16 53q0 21 45 21zM480 3412l196 -315q6 -21 33 -21q25 0 25 16q0 11 -17 37l-184 295q-8 25 -29 25q-33 0 -33 -21q9 -9 9 -16z" />
    <glyph glyph-name="Ntilde" unicode="&#xd1;" horiz-adv-x="3252" 
d="M2638 -37l-1807 2081q-16 24 -45 24q-36 0 -36 -184q-9 -323 -9 -971v-176q0 -342 86 -475q86 -124 320 -156q90 -16 90 -90q0 -36 -115 -36q-16 0 -211 20t-227 20q-69 0 -242 -16t-176 -16q-69 0 -69 65q0 44 94 74q165 70 213 229q28 95 39.5 205.5t12 236t1.5 238.5
l12 668q0 61 4.5 175.5t4.5 197.5q0 268 -164 422q-104 91 -262 118q-82 16 -82 86q0 20 15.5 37t37.5 17q16 0 146.5 -10.5t181.5 -10.5q31 0 191 10.5t185 10.5q55 -3 94.5 -38t94.5 -102l1409 -1659q94 -110 135 -110t41 168l16 327q9 333 9 439v184q0 375 -86 508
q-45 75 -115.5 97.5t-220.5 45.5q-103 10 -103 66q0 30 19 52t51 22q-6 0 210.5 -18.5t371.5 -18.5q72 0 192 18.5t127 18.5q61 0 61 -45q0 -42 -22.5 -56t-71.5 -30q-153 -60 -199.5 -206.5t-46.5 -363.5v-119q0 -82 -7 -303t-18.5 -525t-17.5 -505.5t-6 -308.5
q0 -51 2 -129t2 -105q0 -131 -49 -131q-35 0 -61 33zM602 631q-12 -161 -39.5 -269.5t-107.5 -189.5q159 43 159 266q0 94 -12 193zM389 2601q103 -70 238 -221l1929 -2224q20 -29 45 -29t25 29q0 17 -33 61l-1864 2146q-99 119 -168.5 177t-171.5 61zM2478 2605
q95 -65 131 -146t53 -214q17 59 17 139q0 86 -56 150.5t-145 70.5zM1327 3007h-148q-45 0 -45 37q0 171 67 321t224 150q63 0 108.5 -19.5t106 -58.5t99 -56.5t88.5 -17.5q67 0 77 111q9 28 29 28h156q53 0 53 -36q0 -157 -67.5 -310t-194.5 -153q-60 0 -109 21t-112 63
t-105 63t-92 21q-58 0 -77.5 -52.5t-20.5 -87.5q-4 -9 -8.5 -16.5t-28.5 -7.5zM2007 3388q-63 -176 -156 -176q-42 0 -81 18t-112 59.5t-119 61.5t-93 20q-80 0 -130.5 -58.5t-50.5 -129.5v-98q22 70 38.5 111.5t53.5 77.5t97 36q32 0 78 -22.5t115 -62t114.5 -59.5
t89.5 -20q86 0 121 75t35 167z" />
    <glyph glyph-name="Oacute" unicode="&#xd3;" horiz-adv-x="3113" 
d="M139 1278q0 619 336 1012q130 149 306 260t376.5 171t398.5 60q189 0 365.5 -34.5t339 -110t295.5 -195.5q205 -184 309.5 -446t104.5 -549q0 -203 -51 -409t-152 -390t-244 -323q-191 -188 -447 -282.5t-536 -94.5q-460 0 -778 184q-343 205 -500 553q-123 276 -123 594
zM618 1499q0 -556 259 -967q124 -194 326 -322t419 -128q211 0 383.5 99t288.5 278q221 345 221 831q0 262 -84.5 512t-247.5 443q-97 111 -219 196.5t-260.5 132.5t-282.5 47q-168 0 -321.5 -85t-263.5 -226q-218 -302 -218 -811zM737 2445q-266 -169 -405 -479.5
t-139 -650.5q0 -282 97.5 -537.5t291.5 -441.5q281 -269 630 -303q-431 154 -643 397q-307 349 -307 873q0 205 50.5 413t150.5 385q76 131 274 344zM1712 2634q383 -146 594 -467q262 -396 262 -889q0 -479 -205 -803q-91 -148 -278 -307q205 102 323 287q230 338 230 819
q0 568 -336 991q-250 324 -590 369zM1941 3469l-270 -430q-20 -41 -58 -41h-135q-49 0 -49 53q0 7 2 19t2 18l94 394q14 61 82 61h308q45 0 45 -16q0 -21 -21 -58zM1564 3416l-69 -287q0 -2 -2 -9t-2 -11q0 -29 12 -29q41 0 41 33l74 299q0 2 2 12t2 12q0 13 -17 13
q-34 0 -41 -33z" />
    <glyph glyph-name="Ocircumflex" unicode="&#xd4;" horiz-adv-x="3113" 
d="M139 1278q0 619 336 1012q130 149 306 260t376.5 171t398.5 60q189 0 365.5 -34.5t339 -110t295.5 -195.5q205 -184 309.5 -446t104.5 -549q0 -203 -51 -409t-152 -390t-244 -323q-191 -188 -447 -282.5t-536 -94.5q-460 0 -778 184q-343 205 -500 553q-123 276 -123 594
zM618 1499q0 -556 259 -967q124 -194 326 -322t419 -128q211 0 383.5 99t288.5 278q221 345 221 831q0 262 -84.5 512t-247.5 443q-97 111 -219 196.5t-260.5 132.5t-282.5 47q-168 0 -321.5 -85t-263.5 -226q-218 -302 -218 -811zM737 2445q-266 -169 -405 -479.5
t-139 -650.5q0 -282 97.5 -537.5t291.5 -441.5q281 -269 630 -303q-431 154 -643 397q-307 349 -307 873q0 205 50.5 413t150.5 385q76 131 274 344zM1712 2634q383 -146 594 -467q262 -396 262 -889q0 -479 -205 -803q-91 -148 -278 -307q205 102 323 287q230 338 230 819
q0 568 -336 991q-250 324 -590 369zM1552 3297l-196 -250q-33 -45 -95 -45h-131q-45 0 -45 20q0 70 246 451q31 48 53 67t66 19h250q54 0 94 -57q221 -392 221 -471q0 -25 -57 -25h-135q-33 0 -41 16zM1863 3129q0 7 -56.5 82t-94.5 123q-128 160 -160 160q-45 0 -233 -250
q-20 -26 -51 -67t-31 -48q0 -20 12 -20q10 0 68.5 64.5t95.5 107.5q33 35 77 81t62 46q9 0 26 -15t41.5 -40.5t42.5 -46.5t29 -34q34 -40 89 -99.5t67 -59.5q16 0 16 16z" />
    <glyph glyph-name="Odieresis" unicode="&#xd6;" horiz-adv-x="3113" 
d="M139 1278q0 619 336 1012q130 149 306 260t376.5 171t398.5 60q189 0 365.5 -34.5t339 -110t295.5 -195.5q205 -184 309.5 -446t104.5 -549q0 -203 -51 -409t-152 -390t-244 -323q-191 -188 -447 -282.5t-536 -94.5q-460 0 -778 184q-343 205 -500 553q-123 276 -123 594
zM618 1499q0 -556 259 -967q124 -194 326 -322t419 -128q211 0 383.5 99t288.5 278q221 345 221 831q0 262 -84.5 512t-247.5 443q-97 111 -219 196.5t-260.5 132.5t-282.5 47q-168 0 -321.5 -85t-263.5 -226q-218 -302 -218 -811zM737 2445q-266 -169 -405 -479.5
t-139 -650.5q0 -282 97.5 -537.5t291.5 -441.5q281 -269 630 -303q-431 154 -643 397q-307 349 -307 873q0 205 50.5 413t150.5 385q76 131 274 344zM1712 2634q383 -146 594 -467q262 -396 262 -889q0 -479 -205 -803q-91 -148 -278 -307q205 102 323 287q230 338 230 819
q0 568 -336 991q-250 324 -590 369zM1986 3535l217 -209q29 -29 29 -49q0 -26 -21 -45l-217 -226q-28 -28 -49 -28q-17 0 -45 28l-217 213q-21 30 -21 54q0 20 29 49l193 205q32 32 49 32q29 0 53 -24zM1204 3535l217 -209q29 -29 29 -49q0 -24 -21 -45l-217 -226
q-28 -28 -49 -28q-17 0 -45 28l-217 213q-21 27 -21 54q0 20 29 49l192 205q34 32 49 32q28 0 54 -24zM1814 3277l135 172q4 0 4 12t-12 12q-17 0 -33 -16l-143 -143q-21 -34 -21 -41q0 -11 14 -27t15 -18l143 -140q5 -3 16.5 -13.5t20.5 -10.5q17 0 17 16q0 1 -21 33z
M1032 3277l135 172q4 0 4 12t-12 12q-17 0 -33 -16l-143 -143q-21 -30 -21 -41t14 -27t15 -18l143 -140q8 -6 13.5 -11.5t11.5 -9t12 -3.5q16 0 16 16q0 3 -20 33z" />
    <glyph glyph-name="Ograve" unicode="&#xd2;" horiz-adv-x="3113" 
d="M139 1278q0 619 336 1012q130 149 306 260t376.5 171t398.5 60q189 0 365.5 -34.5t339 -110t295.5 -195.5q205 -184 309.5 -446t104.5 -549q0 -203 -51 -409t-152 -390t-244 -323q-191 -188 -447 -282.5t-536 -94.5q-460 0 -778 184q-343 205 -500 553q-123 276 -123 594
zM618 1499q0 -556 259 -967q124 -194 326 -322t419 -128q211 0 383.5 99t288.5 278q221 345 221 831q0 262 -84.5 512t-247.5 443q-97 111 -219 196.5t-260.5 132.5t-282.5 47q-168 0 -321.5 -85t-263.5 -226q-218 -302 -218 -811zM737 2445q-266 -169 -405 -479.5
t-139 -650.5q0 -282 97.5 -537.5t291.5 -441.5q281 -269 630 -303q-431 154 -643 397q-307 349 -307 873q0 205 50.5 413t150.5 385q76 131 274 344zM1712 2634q383 -146 594 -467q262 -396 262 -889q0 -479 -205 -803q-91 -148 -278 -307q205 102 323 287q230 338 230 819
q0 568 -336 991q-250 324 -590 369zM1163 3543h307q66 0 78 -61l94 -394q0 -5 4 -20t4 -25q0 -30 -10 -37.5t-43 -7.5h-131q-32 0 -57 41l-275 430q-16 34 -16 53q0 21 45 21zM1237 3412l196 -315q6 -21 33 -21q25 0 25 16q0 11 -17 37l-184 295q-8 25 -29 25q-33 0 -33 -21
q9 -9 9 -16z" />
    <glyph glyph-name="Otilde" unicode="&#xd5;" horiz-adv-x="3113" 
d="M139 1278q0 619 336 1012q130 149 306 260t376.5 171t398.5 60q189 0 365.5 -34.5t339 -110t295.5 -195.5q205 -184 309.5 -446t104.5 -549q0 -203 -51 -409t-152 -390t-244 -323q-191 -188 -447 -282.5t-536 -94.5q-460 0 -778 184q-343 205 -500 553q-123 276 -123 594
zM618 1499q0 -556 259 -967q124 -194 326 -322t419 -128q211 0 383.5 99t288.5 278q221 345 221 831q0 262 -84.5 512t-247.5 443q-97 111 -219 196.5t-260.5 132.5t-282.5 47q-168 0 -321.5 -85t-263.5 -226q-218 -302 -218 -811zM737 2445q-266 -169 -405 -479.5
t-139 -650.5q0 -282 97.5 -537.5t291.5 -441.5q281 -269 630 -303q-431 154 -643 397q-307 349 -307 873q0 205 50.5 413t150.5 385q76 131 274 344zM1712 2634q383 -146 594 -467q262 -396 262 -889q0 -479 -205 -803q-91 -148 -278 -307q205 102 323 287q230 338 230 819
q0 568 -336 991q-250 324 -590 369zM1249 3007h-148q-45 0 -45 37q0 171 67 321t224 150q63 0 108.5 -19.5t106 -58.5t99 -56.5t88.5 -17.5q67 0 77 111q9 28 29 28h156q53 0 53 -36q0 -157 -67.5 -310t-194.5 -153q-60 0 -109 21t-112 63t-105 63t-92 21q-58 0 -77.5 -52.5
t-20.5 -87.5q-4 -9 -8.5 -16.5t-28.5 -7.5zM1929 3388q-63 -176 -156 -176q-42 0 -81 18t-112 59.5t-119 61.5t-93 20q-80 0 -130.5 -58.5t-50.5 -129.5v-98q22 70 38.5 111.5t53.5 77.5t97 36q32 0 78 -22.5t115 -62t114.5 -59.5t89.5 -20q86 0 121 75t35 167z" />
    <glyph glyph-name="Scaron" horiz-adv-x="2023" 
d="M299 152l-8 57q-18 139 -74.5 368t-56.5 267q0 123 61 123q52 0 70 -90q35 -165 158.5 -349t294.5 -307t337 -123q132 0 253.5 63.5t194.5 173.5t73 243q0 170 -84 270.5t-252 187.5l-598 307q-439 225 -439 660q0 206 93 385t257 286t363 107q267 0 488 -106
q131 -62 167 -62q41 0 81 31t67 31q49 0 49 -62q0 -13 -2 -71t-2 -72q0 -136 26.5 -314t26.5 -202q0 -86 -45 -86q-43 0 -57.5 27.5t-24.5 78.5q-41 166 -155.5 322t-272.5 253t-325 97q-180 0 -309.5 -119.5t-129.5 -294.5q0 -244 328 -397l446 -213q578 -278 578 -811
q0 -222 -105 -421.5t-296.5 -321t-434.5 -121.5q-414 0 -741 205zM1319 2585q225 -155 381 -410q-16 154 -124 276t-257 134zM455 2503q-181 -217 -181 -492q0 -232 113 -377t322 -250l528 -266q426 -212 426 -483q0 -71 -14 -127t-23 -82q21 26 51.5 90.5t30.5 155.5
q0 161 -115 285t-286 206l-570 283q-178 87 -293.5 237.5t-115.5 360.5q0 113 30.5 215t96.5 244zM225 840q0 -65 14.5 -142.5t46 -212t42.5 -206.5q14 -119 65 -119q25 0 25 28q0 57 -30.5 164.5t-81.5 255t-81 232.5zM1020 3264l213 258q26 37 58 37h135q53 0 53 -29
q0 -53 -81 -214.5t-144 -264.5q-33 -49 -86 -49h-250q-44 0 -66 18.5t-57 67.5l-100 160t-98.5 168.5t-43.5 109.5q0 33 45 33h131q61 0 95 -45zM1331 3432q0 16 -16 16q-10 0 -65.5 -58t-90.5 -97q-12 -13 -41.5 -48t-57 -63t-40.5 -28q-15 0 -69 55t-70 76
q-37 42 -95.5 105t-68.5 63q-12 0 -12 -17q0 -9 31 -51t51 -68q28 -45 114.5 -147t118.5 -102q24 0 80.5 64t79.5 99q38 49 94.5 124t56.5 77z" />
    <glyph glyph-name="Thorn" horiz-adv-x="2519" 
d="M1012 1847v-1179q0 -178 25 -294.5t110.5 -189t253.5 -82.5q82 -9 82 -61q0 -57 -103 -57q13 0 -192 16t-381 16q-114 0 -291 -14t-188 -14q-66 0 -66 57q0 45 37 57l70 17q126 35 159 160.5t33 306.5v1589q0 146 -35.5 229t-115 127t-226.5 74q-78 22 -78 66q0 69 99 69
q-23 0 146 -14t341 -14q185 0 344 12t152 12q127 0 127 -53q0 -40 -25.5 -52.5t-77.5 -21.5q-196 -39 -196 -282q0 -45 18.5 -55.5t71.5 -10.5q-2 0 177 4t253 4q442 0 688 -205q262 -217 262 -557q0 -226 -116.5 -406.5t-311 -280t-420.5 -99.5q-157 0 -314 33.5
t-157 109.5q0 54 66 54q13 0 104.5 -18.5t161.5 -18.5q157 0 272 76.5t173.5 204.5t58.5 284q0 151 -72.5 302t-197.5 252.5t-275 117.5q-289 0 -381 -86q-65 -60 -65 -185zM446 2589q111 -90 141.5 -182.5t30.5 -260.5v-1573q0 -286 -102 -430q114 57 143 166t29 289v1651
q0 285 -242 340zM1663 2118q109 -69 199.5 -175t142 -233t51.5 -256q0 -367 -307 -565q156 38 250 143q135 165 135 414q0 153 -57.5 289.5t-164.5 235.5t-249 147z" />
    <glyph glyph-name="Uacute" unicode="&#xda;" horiz-adv-x="3252" 
d="M512 1143v962q0 181 -16 271.5t-86 151.5t-230 89q-98 27 -98 70q0 70 111 70q1 0 180 -16.5t336 -16.5q106 0 279 16.5t204 16.5q106 0 106 -62q0 -28 -14.5 -42.5t-39.5 -22t-48 -13.5q-150 -33 -191.5 -172t-41.5 -393v-586q0 -278 12 -413q8 -139 34.5 -264
t84.5 -233.5t159 -195.5q221 -192 586 -192q204 0 386.5 80t289.5 239q85 127 128 276.5t57 301.5t16 340l8 475v148q0 163 -25 286t-106.5 207t-241.5 100q-119 11 -119 86q0 50 58 50q20 0 222.5 -14.5t235.5 -14.5q56 0 206 14.5t171 14.5q20 0 39 -19t19 -39
q0 -36 -22.5 -49.5t-78.5 -31.5t-91.5 -47t-57.5 -93q-33 -94 -33 -536l-8 -541q-8 -505 -94 -737q-150 -414 -533 -603q-131 -66 -287.5 -90t-347.5 -24q-678 0 -946 393q-107 154 -139.5 347t-32.5 456zM455 2593q77 -101 97.5 -184.5t20.5 -213.5v-90v-1155
q0 -220 81 -426t255 -331q212 -152 480 -164q-189 58 -316.5 124t-224.5 179q-89 101 -134.5 231.5t-58 263.5t-12.5 312v1048q0 171 -31.5 266.5t-156.5 139.5zM2560 2609q99 -57 140.5 -156.5t68.5 -248.5q12 72 12 123q0 258 -221 282zM2138 3469l-270 -430
q-20 -41 -58 -41h-135q-49 0 -49 53q0 7 2 19t2 18l94 394q14 61 82 61h308q45 0 45 -16q0 -21 -21 -58zM1761 3416l-69 -287q0 -2 -2 -9t-2 -11q0 -29 12 -29q41 0 41 33l74 299q0 2 2 12t2 12q0 13 -17 13q-34 0 -41 -33z" />
    <glyph glyph-name="Ucircumflex" unicode="&#xdb;" horiz-adv-x="3252" 
d="M512 1143v962q0 181 -16 271.5t-86 151.5t-230 89q-98 27 -98 70q0 70 111 70q1 0 180 -16.5t336 -16.5q106 0 279 16.5t204 16.5q106 0 106 -62q0 -28 -14.5 -42.5t-39.5 -22t-48 -13.5q-150 -33 -191.5 -172t-41.5 -393v-586q0 -278 12 -413q8 -139 34.5 -264
t84.5 -233.5t159 -195.5q221 -192 586 -192q204 0 386.5 80t289.5 239q85 127 128 276.5t57 301.5t16 340l8 475v148q0 163 -25 286t-106.5 207t-241.5 100q-119 11 -119 86q0 50 58 50q20 0 222.5 -14.5t235.5 -14.5q56 0 206 14.5t171 14.5q20 0 39 -19t19 -39
q0 -36 -22.5 -49.5t-78.5 -31.5t-91.5 -47t-57.5 -93q-33 -94 -33 -536l-8 -541q-8 -505 -94 -737q-150 -414 -533 -603q-131 -66 -287.5 -90t-347.5 -24q-678 0 -946 393q-107 154 -139.5 347t-32.5 456zM455 2593q77 -101 97.5 -184.5t20.5 -213.5v-90v-1155
q0 -220 81 -426t255 -331q212 -152 480 -164q-189 58 -316.5 124t-224.5 179q-89 101 -134.5 231.5t-58 263.5t-12.5 312v1048q0 171 -31.5 266.5t-156.5 139.5zM2560 2609q99 -57 140.5 -156.5t68.5 -248.5q12 72 12 123q0 258 -221 282zM1749 3297l-196 -250
q-33 -45 -95 -45h-131q-45 0 -45 20q0 70 246 451q31 48 53 67t66 19h250q54 0 94 -57q221 -392 221 -471q0 -25 -57 -25h-135q-33 0 -41 16zM2060 3129q0 7 -56.5 82t-94.5 123q-128 160 -160 160q-45 0 -233 -250q-20 -26 -51 -67t-31 -48q0 -20 12 -20q10 0 68.5 64.5
t95.5 107.5q33 35 77 81t62 46q9 0 26 -15t41.5 -40.5t42.5 -46.5t29 -34q34 -40 89 -99.5t67 -59.5q16 0 16 16z" />
    <glyph glyph-name="Udieresis" unicode="&#xdc;" horiz-adv-x="3252" 
d="M512 1143v962q0 181 -16 271.5t-86 151.5t-230 89q-98 27 -98 70q0 70 111 70q1 0 180 -16.5t336 -16.5q106 0 279 16.5t204 16.5q106 0 106 -62q0 -28 -14.5 -42.5t-39.5 -22t-48 -13.5q-150 -33 -191.5 -172t-41.5 -393v-586q0 -278 12 -413q8 -139 34.5 -264
t84.5 -233.5t159 -195.5q221 -192 586 -192q204 0 386.5 80t289.5 239q85 127 128 276.5t57 301.5t16 340l8 475v148q0 163 -25 286t-106.5 207t-241.5 100q-119 11 -119 86q0 50 58 50q20 0 222.5 -14.5t235.5 -14.5q56 0 206 14.5t171 14.5q20 0 39 -19t19 -39
q0 -36 -22.5 -49.5t-78.5 -31.5t-91.5 -47t-57.5 -93q-33 -94 -33 -536l-8 -541q-8 -505 -94 -737q-150 -414 -533 -603q-131 -66 -287.5 -90t-347.5 -24q-678 0 -946 393q-107 154 -139.5 347t-32.5 456zM455 2593q77 -101 97.5 -184.5t20.5 -213.5v-90v-1155
q0 -220 81 -426t255 -331q212 -152 480 -164q-189 58 -316.5 124t-224.5 179q-89 101 -134.5 231.5t-58 263.5t-12.5 312v1048q0 171 -31.5 266.5t-156.5 139.5zM2560 2609q99 -57 140.5 -156.5t68.5 -248.5q12 72 12 123q0 258 -221 282zM2183 3535l217 -209q29 -29 29 -49
q0 -26 -21 -45l-217 -226q-28 -28 -49 -28q-17 0 -45 28l-217 213q-21 30 -21 54q0 20 29 49l193 205q32 32 49 32q29 0 53 -24zM1401 3535l217 -209q29 -29 29 -49q0 -24 -21 -45l-217 -226q-28 -28 -49 -28q-17 0 -45 28l-217 213q-21 27 -21 54q0 20 29 49l192 205
q34 32 49 32q28 0 54 -24zM2011 3277l135 172q4 0 4 12t-12 12q-17 0 -33 -16l-143 -143q-21 -34 -21 -41q0 -11 14 -27t15 -18l143 -140q5 -3 16.5 -13.5t20.5 -10.5q17 0 17 16q0 1 -21 33zM1229 3277l135 172q4 0 4 12t-12 12q-17 0 -33 -16l-143 -143q-21 -30 -21 -41
t14 -27t15 -18l143 -140q8 -6 13.5 -11.5t11.5 -9t12 -3.5q16 0 16 16q0 3 -20 33z" />
    <glyph glyph-name="Ugrave" unicode="&#xd9;" horiz-adv-x="3252" 
d="M512 1143v962q0 181 -16 271.5t-86 151.5t-230 89q-98 27 -98 70q0 70 111 70q1 0 180 -16.5t336 -16.5q106 0 279 16.5t204 16.5q106 0 106 -62q0 -28 -14.5 -42.5t-39.5 -22t-48 -13.5q-150 -33 -191.5 -172t-41.5 -393v-586q0 -278 12 -413q8 -139 34.5 -264
t84.5 -233.5t159 -195.5q221 -192 586 -192q204 0 386.5 80t289.5 239q85 127 128 276.5t57 301.5t16 340l8 475v148q0 163 -25 286t-106.5 207t-241.5 100q-119 11 -119 86q0 50 58 50q20 0 222.5 -14.5t235.5 -14.5q56 0 206 14.5t171 14.5q20 0 39 -19t19 -39
q0 -36 -22.5 -49.5t-78.5 -31.5t-91.5 -47t-57.5 -93q-33 -94 -33 -536l-8 -541q-8 -505 -94 -737q-150 -414 -533 -603q-131 -66 -287.5 -90t-347.5 -24q-678 0 -946 393q-107 154 -139.5 347t-32.5 456zM455 2593q77 -101 97.5 -184.5t20.5 -213.5v-90v-1155
q0 -220 81 -426t255 -331q212 -152 480 -164q-189 58 -316.5 124t-224.5 179q-89 101 -134.5 231.5t-58 263.5t-12.5 312v1048q0 171 -31.5 266.5t-156.5 139.5zM2560 2609q99 -57 140.5 -156.5t68.5 -248.5q12 72 12 123q0 258 -221 282zM1364 3543h307q66 0 78 -61
l94 -394q0 -5 4 -20t4 -25q0 -30 -10 -37.5t-43 -7.5h-131q-32 0 -57 41l-275 430q-16 34 -16 53q0 21 45 21zM1438 3412l196 -315q6 -21 33 -21q25 0 25 16q0 11 -17 37l-184 295q-8 25 -29 25q-33 0 -33 -21q9 -9 9 -16z" />
    <glyph glyph-name="Yacute" horiz-adv-x="2544" 
d="M938 1364l-475 893q-84 158 -171.5 241.5t-238.5 114.5q-94 18 -94 82q0 62 61 62q12 0 208 -18.5t427 -18.5q144 0 219 7.5t130.5 18.5t72.5 11q70 0 70 -58q0 -56 -98 -73q-45 -9 -84 -46.5t-39 -76.5q0 -93 37 -160l430 -823q37 -78 73 -78q41 0 119 155
q165 282 265 478t100 325q0 101 -77 158.5t-185 71.5q-52 9 -79.5 22t-27.5 51q0 54 74 54q33 0 170 -16.5t293 -16.5q131 0 260.5 16.5t124.5 16.5q82 0 82 -58q0 -52 -86 -69q-109 -23 -193.5 -102.5t-133.5 -160.5t-140 -249q-3 0 -303 -574q-145 -239 -177 -327
q-24 -79 -24 -205v-508q0 -176 77 -271.5t250 -113.5q86 -13 125 -24.5t39 -53.5q0 -61 -102 -61q13 0 -222 20t-405 20q-194 0 -396 -20t-198 -20q-65 0 -65 53q0 62 98 82q348 54 348 409v377q0 194 -139 463zM283 2589q118 -99 229 -308l516 -987q59 -113 83 -199
t24 -206v-385q0 -146 -52.5 -236t-87.5 -121q52 3 130.5 71t78.5 278v401q0 131 -27 220.5t-96 225.5l-508 963q-64 125 -123.5 193.5t-166.5 89.5zM1888 2617q123 -107 123 -217v-49q10 11 25.5 41.5t15.5 81.5q0 63 -44.5 103t-119.5 40zM1724 3469l-270 -430
q-20 -41 -58 -41h-135q-49 0 -49 53q0 7 2 19t2 18l94 394q14 61 82 61h308q45 0 45 -16q0 -21 -21 -58zM1347 3416l-69 -287q0 -2 -2 -9t-2 -11q0 -29 12 -29q41 0 41 33l74 299q0 2 2 12t2 12q0 13 -17 13q-34 0 -41 -33z" />
    <glyph glyph-name="Ydieresis" unicode="&#x178;" horiz-adv-x="2544" 
d="M938 1364l-475 893q-84 158 -171.5 241.5t-238.5 114.5q-94 18 -94 82q0 62 61 62q12 0 208 -18.5t427 -18.5q144 0 219 7.5t130.5 18.5t72.5 11q70 0 70 -58q0 -56 -98 -73q-45 -9 -84 -46.5t-39 -76.5q0 -93 37 -160l430 -823q37 -78 73 -78q41 0 119 155
q165 282 265 478t100 325q0 101 -77 158.5t-185 71.5q-52 9 -79.5 22t-27.5 51q0 54 74 54q33 0 170 -16.5t293 -16.5q131 0 260.5 16.5t124.5 16.5q82 0 82 -58q0 -52 -86 -69q-109 -23 -193.5 -102.5t-133.5 -160.5t-140 -249q-3 0 -303 -574q-145 -239 -177 -327
q-24 -79 -24 -205v-508q0 -176 77 -271.5t250 -113.5q86 -13 125 -24.5t39 -53.5q0 -61 -102 -61q13 0 -222 20t-405 20q-194 0 -396 -20t-198 -20q-65 0 -65 53q0 62 98 82q348 54 348 409v377q0 194 -139 463zM283 2589q118 -99 229 -308l516 -987q59 -113 83 -199
t24 -206v-385q0 -146 -52.5 -236t-87.5 -121q52 3 130.5 71t78.5 278v401q0 131 -27 220.5t-96 225.5l-508 963q-64 125 -123.5 193.5t-166.5 89.5zM1888 2617q123 -107 123 -217v-49q10 11 25.5 41.5t15.5 81.5q0 63 -44.5 103t-119.5 40zM1757 3535l217 -209
q29 -29 29 -49q0 -26 -21 -45l-217 -226q-28 -28 -49 -28q-17 0 -45 28l-217 213q-21 30 -21 54q0 20 29 49l193 205q32 32 49 32q29 0 53 -24zM975 3535l217 -209q29 -29 29 -49q0 -24 -21 -45l-217 -226q-28 -28 -49 -28q-17 0 -45 28l-217 213q-21 27 -21 54q0 20 29 49
l192 205q34 32 49 32q28 0 54 -24zM1585 3277l135 172q4 0 4 12t-12 12q-17 0 -33 -16l-143 -143q-21 -34 -21 -41q0 -11 14 -27t15 -18l143 -140q5 -3 16.5 -13.5t20.5 -10.5q17 0 17 16q0 1 -21 33zM803 3277l135 172q4 0 4 12t-12 12q-17 0 -33 -16l-143 -143
q-21 -30 -21 -41t14 -27t15 -18l143 -140q8 -6 13.5 -11.5t11.5 -9t12 -3.5q16 0 16 16q0 3 -20 33z" />
    <glyph glyph-name="Zcaron" horiz-adv-x="2159" 
d="M1614 1921l-561 -1069q-44 -88 -193 -365q-8 -13 -31.5 -52.5t-37 -65t-27.5 -65.5t-14 -66q0 -58 225 -58q467 0 683 122.5t296 254.5q73 135 102 135q33 0 33 -41q0 -228 -135 -438q-152 -238 -455 -238q-104 0 -357.5 27t-400.5 27q-116 0 -379.5 -18.5t-250.5 -18.5
q-33 0 -33 37q0 14 124.5 224.5t149.5 258.5l770 1425q242 446 242 545q0 78 -430 78q-153 0 -280 -24t-224 -98.5t-123 -209.5q-6 -31 -13.5 -68t-26 -64.5t-50.5 -27.5q-49 0 -49 86q0 50 26.5 193.5t26.5 253.5q0 92 20.5 124t73.5 32q38 0 201.5 -14.5t347.5 -14.5
l553 -4q93 0 301 16.5t224 16.5q86 0 86 -45q0 -65 -218 -418q-78 -143 -196 -373zM295 2343q86 169 291 225q-55 17 -66 17q-78 0 -151.5 -54.5t-73.5 -187.5zM1167 1929l-790 -1487q-4 -8 -90 -157t-86 -179q0 -28 24 -28t95 127.5t114 212.5l897 1687q24 45 88 195.5
t64 173.5q0 33 -25 33t-41 -41q-89 -239 -250 -537zM1937 467q-141 -152 -298 -222.5t-386 -97.5q98 -28 213 -28q143 0 288.5 99t182.5 249zM1138 3264l213 258q26 37 58 37h135q53 0 53 -29q0 -53 -81 -214.5t-144 -264.5q-33 -49 -86 -49h-250q-44 0 -66 18.5t-57 67.5
l-100 160t-98.5 168.5t-43.5 109.5q0 33 45 33h131q61 0 95 -45zM1449 3432q0 16 -16 16q-10 0 -65.5 -58t-90.5 -97q-12 -13 -41.5 -48t-57 -63t-40.5 -28q-15 0 -69 55t-70 76q-37 42 -95.5 105t-68.5 63q-12 0 -12 -17q0 -9 31 -51t51 -68q28 -45 114.5 -147t118.5 -102
q24 0 80.5 64t79.5 99q38 49 94.5 124t56.5 77z" />
    <glyph glyph-name="aacute" unicode="&#xe1;" horiz-adv-x="1827" 
d="M1544 1176v-644q0 -132 28.5 -219.5t123.5 -87.5q29 0 72 16.5t59 16.5q45 0 45 -57q0 -45 -66.5 -94.5t-155 -84t-147.5 -34.5q-184 0 -282 159q-35 66 -50 66t-48.5 -24.5t-53.5 -41.5q-123 -76 -173.5 -104.5t-134.5 -50t-204 -21.5q-180 0 -268 118.5t-88 283.5
q0 207 148 344.5t413 200.5l323 77q46 10 58 36t12 99q0 229 -90 349q-110 139 -258 139q-180 0 -180 -172q0 -10 2 -54t2 -57q0 -62 -104.5 -98.5t-182.5 -36.5q-115 0 -115 115q0 63 49.5 145.5t122.5 136.5q198 148 541 148q320 0 483 -172q119 -129 119 -397zM1147 414
v352q0 123 -70 123q-146 0 -311 -131q-152 -116 -152 -316q0 -134 73.5 -191.5t168.5 -57.5q115 0 203 65t88 156zM1417 70q-94 82 -127 167t-33 222v680q0 179 -40 281.5t-181 164.5q93 -106 126.5 -197t33.5 -233v-676q0 -181 37 -275.5t184 -133.5zM537 774
q-142 -46 -214.5 -157.5t-72.5 -251.5q0 -132 63 -236t207 -104q23 0 45.5 1.5t32.5 2.5q-132 35 -203 103.5t-71 195.5q0 289 213 446zM475 1577q-78 -27 -133 -105t-55 -161q0 -49 32 -49q37 0 37 57q15 158 119 258zM1307 2613l-270 -430q-20 -41 -58 -41h-135
q-49 0 -49 53q0 7 2 19t2 18l94 394q14 61 82 61h308q45 0 45 -16q0 -21 -21 -58zM930 2560l-69 -287q0 -2 -2 -9t-2 -11q0 -29 12 -29q41 0 41 33l74 299q0 2 2 12t2 12q0 13 -17 13q-34 0 -41 -33z" />
    <glyph glyph-name="acircumflex" unicode="&#xe2;" horiz-adv-x="1827" 
d="M1544 1176v-644q0 -132 28.5 -219.5t123.5 -87.5q29 0 72 16.5t59 16.5q45 0 45 -57q0 -45 -66.5 -94.5t-155 -84t-147.5 -34.5q-184 0 -282 159q-35 66 -50 66t-48.5 -24.5t-53.5 -41.5q-123 -76 -173.5 -104.5t-134.5 -50t-204 -21.5q-180 0 -268 118.5t-88 283.5
q0 207 148 344.5t413 200.5l323 77q46 10 58 36t12 99q0 229 -90 349q-110 139 -258 139q-180 0 -180 -172q0 -10 2 -54t2 -57q0 -62 -104.5 -98.5t-182.5 -36.5q-115 0 -115 115q0 63 49.5 145.5t122.5 136.5q198 148 541 148q320 0 483 -172q119 -129 119 -397zM1147 414
v352q0 123 -70 123q-146 0 -311 -131q-152 -116 -152 -316q0 -134 73.5 -191.5t168.5 -57.5q115 0 203 65t88 156zM1417 70q-94 82 -127 167t-33 222v680q0 179 -40 281.5t-181 164.5q93 -106 126.5 -197t33.5 -233v-676q0 -181 37 -275.5t184 -133.5zM537 774
q-142 -46 -214.5 -157.5t-72.5 -251.5q0 -132 63 -236t207 -104q23 0 45.5 1.5t32.5 2.5q-132 35 -203 103.5t-71 195.5q0 289 213 446zM475 1577q-78 -27 -133 -105t-55 -161q0 -49 32 -49q37 0 37 57q15 158 119 258zM909 2429l-196 -250q-33 -45 -95 -45h-131
q-45 0 -45 20q0 70 246 451q31 48 53 67t66 19h250q54 0 94 -57q221 -392 221 -471q0 -25 -57 -25h-135q-33 0 -41 16zM1220 2261q0 7 -56.5 82t-94.5 123q-128 160 -160 160q-45 0 -233 -250q-20 -26 -51 -67t-31 -48q0 -20 12 -20q10 0 68.5 64.5t95.5 107.5q33 35 77 81
t62 46q9 0 26 -15t41.5 -40.5t42.5 -46.5t29 -34q34 -40 89 -99.5t67 -59.5q16 0 16 16z" />
    <glyph glyph-name="adieresis" unicode="&#xe4;" horiz-adv-x="1827" 
d="M1544 1176v-644q0 -132 28.5 -219.5t123.5 -87.5q29 0 72 16.5t59 16.5q45 0 45 -57q0 -45 -66.5 -94.5t-155 -84t-147.5 -34.5q-184 0 -282 159q-35 66 -50 66t-48.5 -24.5t-53.5 -41.5q-123 -76 -173.5 -104.5t-134.5 -50t-204 -21.5q-180 0 -268 118.5t-88 283.5
q0 207 148 344.5t413 200.5l323 77q46 10 58 36t12 99q0 229 -90 349q-110 139 -258 139q-180 0 -180 -172q0 -10 2 -54t2 -57q0 -62 -104.5 -98.5t-182.5 -36.5q-115 0 -115 115q0 63 49.5 145.5t122.5 136.5q198 148 541 148q320 0 483 -172q119 -129 119 -397zM1147 414
v352q0 123 -70 123q-146 0 -311 -131q-152 -116 -152 -316q0 -134 73.5 -191.5t168.5 -57.5q115 0 203 65t88 156zM1417 70q-94 82 -127 167t-33 222v680q0 179 -40 281.5t-181 164.5q93 -106 126.5 -197t33.5 -233v-676q0 -181 37 -275.5t184 -133.5zM537 774
q-142 -46 -214.5 -157.5t-72.5 -251.5q0 -132 63 -236t207 -104q23 0 45.5 1.5t32.5 2.5q-132 35 -203 103.5t-71 195.5q0 289 213 446zM475 1577q-78 -27 -133 -105t-55 -161q0 -49 32 -49q37 0 37 57q15 158 119 258zM1352 2683l217 -209q29 -29 29 -49q0 -26 -21 -45
l-217 -226q-28 -28 -49 -28q-17 0 -45 28l-217 213q-21 30 -21 54q0 20 29 49l193 205q32 32 49 32q29 0 53 -24zM570 2683l217 -209q29 -29 29 -49q0 -24 -21 -45l-217 -226q-28 -28 -49 -28q-17 0 -45 28l-217 213q-21 27 -21 54q0 20 29 49l192 205q34 32 49 32
q28 0 54 -24zM1180 2425l135 172q4 0 4 12t-12 12q-17 0 -33 -16l-143 -143q-21 -34 -21 -41q0 -11 14 -27t15 -18l143 -140q5 -3 16.5 -13.5t20.5 -10.5q17 0 17 16q0 1 -21 33zM398 2425l135 172q4 0 4 12t-12 12q-17 0 -33 -16l-143 -143q-21 -30 -21 -41t14 -27t15 -18
l143 -140q8 -6 13.5 -11.5t11.5 -9t12 -3.5q16 0 16 16q0 3 -20 33z" />
    <glyph glyph-name="agrave" unicode="&#xe0;" horiz-adv-x="1827" 
d="M1544 1176v-644q0 -132 28.5 -219.5t123.5 -87.5q29 0 72 16.5t59 16.5q45 0 45 -57q0 -45 -66.5 -94.5t-155 -84t-147.5 -34.5q-184 0 -282 159q-35 66 -50 66t-48.5 -24.5t-53.5 -41.5q-123 -76 -173.5 -104.5t-134.5 -50t-204 -21.5q-180 0 -268 118.5t-88 283.5
q0 207 148 344.5t413 200.5l323 77q46 10 58 36t12 99q0 229 -90 349q-110 139 -258 139q-180 0 -180 -172q0 -10 2 -54t2 -57q0 -62 -104.5 -98.5t-182.5 -36.5q-115 0 -115 115q0 63 49.5 145.5t122.5 136.5q198 148 541 148q320 0 483 -172q119 -129 119 -397zM1147 414
v352q0 123 -70 123q-146 0 -311 -131q-152 -116 -152 -316q0 -134 73.5 -191.5t168.5 -57.5q115 0 203 65t88 156zM1417 70q-94 82 -127 167t-33 222v680q0 179 -40 281.5t-181 164.5q93 -106 126.5 -197t33.5 -233v-676q0 -181 37 -275.5t184 -133.5zM537 774
q-142 -46 -214.5 -157.5t-72.5 -251.5q0 -132 63 -236t207 -104q23 0 45.5 1.5t32.5 2.5q-132 35 -203 103.5t-71 195.5q0 289 213 446zM475 1577q-78 -27 -133 -105t-55 -161q0 -49 32 -49q37 0 37 57q15 158 119 258zM590 2687h307q66 0 78 -61l94 -394q0 -5 4 -20t4 -25
q0 -30 -10 -37.5t-43 -7.5h-131q-32 0 -57 41l-275 430q-16 34 -16 53q0 21 45 21zM664 2556l196 -315q6 -21 33 -21q25 0 25 16q0 11 -17 37l-184 295q-8 25 -29 25q-33 0 -33 -21q9 -9 9 -16z" />
    <glyph glyph-name="aring" unicode="&#xe5;" horiz-adv-x="1827" 
d="M1544 1176v-644q0 -132 28.5 -219.5t123.5 -87.5q29 0 72 16.5t59 16.5q45 0 45 -57q0 -45 -66.5 -94.5t-155 -84t-147.5 -34.5q-184 0 -282 159q-35 66 -50 66t-48.5 -24.5t-53.5 -41.5q-123 -76 -173.5 -104.5t-134.5 -50t-204 -21.5q-180 0 -268 118.5t-88 283.5
q0 207 148 344.5t413 200.5l323 77q46 10 58 36t12 99q0 229 -90 349q-110 139 -258 139q-180 0 -180 -172q0 -10 2 -54t2 -57q0 -62 -104.5 -98.5t-182.5 -36.5q-115 0 -115 115q0 63 49.5 145.5t122.5 136.5q198 148 541 148q320 0 483 -172q119 -129 119 -397zM1147 414
v352q0 123 -70 123q-146 0 -311 -131q-152 -116 -152 -316q0 -134 73.5 -191.5t168.5 -57.5q115 0 203 65t88 156zM1417 70q-94 82 -127 167t-33 222v680q0 179 -40 281.5t-181 164.5q93 -106 126.5 -197t33.5 -233v-676q0 -181 37 -275.5t184 -133.5zM537 774
q-142 -46 -214.5 -157.5t-72.5 -251.5q0 -132 63 -236t207 -104q23 0 45.5 1.5t32.5 2.5q-132 35 -203 103.5t-71 195.5q0 289 213 446zM475 1577q-78 -27 -133 -105t-55 -161q0 -49 32 -49q37 0 37 57q15 158 119 258zM864 2134q-131 0 -221 90t-90 221t89.5 221.5
t221.5 90.5q85 0 157 -41t113 -113.5t41 -157.5q0 -132 -89.5 -221.5t-221.5 -89.5zM860 2568q-51 0 -87 -35t-36 -88q0 -49 37 -86t86 -37q51 0 89 37t38 86q0 53 -37 88t-90 35zM844 2638q8 4 28 4q80 0 132.5 -65t52.5 -144q0 -64 -46 -139q103 73 103 168
q0 77 -51.5 138.5t-137.5 61.5q-49 0 -81 -24zM889 2245h-33q-77 0 -128.5 64.5t-51.5 144.5q0 72 41 139q-103 -78 -103 -168q0 -78 55 -139.5t146 -61.5q37 0 74 21z" />
    <glyph glyph-name="atilde" unicode="&#xe3;" horiz-adv-x="1827" 
d="M1544 1176v-644q0 -132 28.5 -219.5t123.5 -87.5q29 0 72 16.5t59 16.5q45 0 45 -57q0 -45 -66.5 -94.5t-155 -84t-147.5 -34.5q-184 0 -282 159q-35 66 -50 66t-48.5 -24.5t-53.5 -41.5q-123 -76 -173.5 -104.5t-134.5 -50t-204 -21.5q-180 0 -268 118.5t-88 283.5
q0 207 148 344.5t413 200.5l323 77q46 10 58 36t12 99q0 229 -90 349q-110 139 -258 139q-180 0 -180 -172q0 -10 2 -54t2 -57q0 -62 -104.5 -98.5t-182.5 -36.5q-115 0 -115 115q0 63 49.5 145.5t122.5 136.5q198 148 541 148q320 0 483 -172q119 -129 119 -397zM1147 414
v352q0 123 -70 123q-146 0 -311 -131q-152 -116 -152 -316q0 -134 73.5 -191.5t168.5 -57.5q115 0 203 65t88 156zM1417 70q-94 82 -127 167t-33 222v680q0 179 -40 281.5t-181 164.5q93 -106 126.5 -197t33.5 -233v-676q0 -181 37 -275.5t184 -133.5zM537 774
q-142 -46 -214.5 -157.5t-72.5 -251.5q0 -132 63 -236t207 -104q23 0 45.5 1.5t32.5 2.5q-132 35 -203 103.5t-71 195.5q0 289 213 446zM475 1577q-78 -27 -133 -105t-55 -161q0 -49 32 -49q37 0 37 57q15 158 119 258zM594 2167h-148q-45 0 -45 37q0 171 67 321t224 150
q63 0 108.5 -19.5t106 -58.5t99 -56.5t88.5 -17.5q67 0 77 111q9 28 29 28h156q53 0 53 -36q0 -157 -67.5 -310t-194.5 -153q-60 0 -109 21t-112 63t-105 63t-92 21q-58 0 -77.5 -52.5t-20.5 -87.5q-4 -9 -8.5 -16.5t-28.5 -7.5zM1274 2548q-63 -176 -156 -176q-42 0 -81 18
t-112 59.5t-119 61.5t-93 20q-80 0 -130.5 -58.5t-50.5 -129.5v-98q22 70 38.5 111.5t53.5 77.5t97 36q32 0 78 -22.5t115 -62t114.5 -59.5t89.5 -20q86 0 121 75t35 167z" />
    <glyph glyph-name="brokenbar" horiz-adv-x="2048" 
d="M877 2728h299v-1401h-299v1401zM877 627h299v-1311h-299v1311z" />
    <glyph glyph-name="ccedilla" unicode="&#xe7;" horiz-adv-x="1642" 
d="M1450 147q-221 -162 -487 -176l-37 -86q117 -13 199.5 -77t82.5 -173q0 -136 -97 -227.5t-234 -91.5q-99 0 -215.5 63.5t-116.5 153.5q0 28 15 51t42 23q15 0 68 -37t104 -37q45 0 80 27t35 71q0 72 -103 99q-37 9 -53 19t-16 42q0 13 16 45q15 36 36.5 89.5t21.5 58.5
q-194 28 -349 132.5t-241 271.5t-86 374q0 249 114 473.5t335 363t526 138.5q303 0 438 -156q82 -89 82 -201q0 -42 -61 -96t-138.5 -93.5t-120.5 -39.5q-45 0 -45 74q0 80 -48.5 169.5t-129.5 148.5t-174 59q-80 0 -148.5 -47.5t-117.5 -120.5q-103 -149 -103 -410
q0 -328 158.5 -563.5t493.5 -235.5q99 0 162.5 29t132 78t94.5 49q37 0 37 -49q0 -25 -14.5 -50.5t-36 -47t-51.5 -46.5t-50 -41zM594 1556q-141 -77 -239 -205t-146.5 -284t-48.5 -317q0 -215 97 -372t234.5 -237t253.5 -80q-225 88 -368.5 266.5t-143.5 405.5
q0 239 70 413t234 345zM942 -225q55 -46 81 -74.5t26 -85.5q0 -68 -62 -116t-139 -48h-82q77 -37 135 -37q81 0 145 59t64 142q0 121 -168 160zM1114 1577q145 -139 180 -291q14 -41 33 -41q29 0 29 33q0 74 -58 164q-68 98 -184 135z" />
    <glyph glyph-name="copyright" unicode="&#xa9;" horiz-adv-x="3125" 
d="M1565 -53q-384 0 -711.5 191.5t-519 518t-191.5 711.5q0 381 191 707.5t519 518t712 191.5q381 0 707.5 -191.5t518 -518t191.5 -707.5q0 -385 -191.5 -712t-518 -518t-707.5 -191zM1565 115q337 0 624.5 168t456 457t168.5 628q0 337 -168.5 624.5t-456 456
t-624.5 168.5q-336 0 -626 -169t-459 -455.5t-169 -624.5q0 -339 168.5 -627.5t457 -457t628.5 -168.5zM1081 1417q0 -174 74 -342.5t211 -275.5t317 -107q277 0 492 230q31 41 61 41q41 0 41 -45q0 -54 -114 -168q-252 -234 -598 -234q-224 0 -410.5 103.5t-293.5 285.5
t-107 406q0 229 105.5 436.5t298 336t435.5 128.5q202 0 463 -127q107 -49 123 -49q9 0 32.5 26.5t45.5 26.5q53 0 53 -78q0 -25 -4 -70t-4 -118q0 -20 8 -108t8 -101q0 -94 -49 -94q-22 0 -33.5 12t-20.5 36.5t-11 28.5q-49 138 -138.5 252t-207 183t-244.5 69
q-256 0 -410 -213q-123 -174 -123 -471zM1937 2036q95 -56 187 -174.5t125 -202.5q-10 153 -88.5 256.5t-223.5 120.5zM1212 2048q-196 -102 -298.5 -302t-102.5 -435q0 -348 242 -578q143 -133 426 -164q-274 97 -410 238q-184 202 -184 508q0 417 327 733z" />
    <glyph glyph-name="degree" unicode="&#xb0;" horiz-adv-x="1073" 
d="M532 1831q-156 0 -268 112t-112 269t113 271t267 114q103 0 192 -53t141.5 -142.5t52.5 -189.5q0 -157 -114.5 -269t-271.5 -112zM532 1991q91 0 158.5 65.5t67.5 155.5q0 92 -66.5 158.5t-159.5 66.5q-89 0 -155 -67t-66 -158q0 -89 67 -155t154 -66zM582 2519
q112 -70 166.5 -139.5t54.5 -184.5q0 -82 -45 -196q106 121 106 229q0 224 -282 291zM270 2376q-69 -75 -69 -172q0 -87 50 -164t126 -111q54 -24 139 -24q-266 99 -266 360q0 49 20 111z" />
    <glyph glyph-name="divide" unicode="&#xf7;" 
d="M1110 2093l201 -201q28 -28 28 -61q0 -28 -28 -49l-213 -217q-17 -21 -54 -21q-33 7 -49 33l-204 209q-25 18 -25 53q0 22 29 49l204 205q35 33 54 33q24 0 57 -33zM1888 1294v-127q0 -98 -78 -98h-1515q-39 0 -56.5 10t-17.5 47v115q0 102 74 102h1544q49 0 49 -49z
M1110 836l201 -201q28 -30 28 -62q0 -26 -28 -49l-213 -217q-17 -20 -54 -20q-32 6 -49 32l-204 209q-25 19 -25 54q0 20 29 49l204 205q34 32 54 32q25 0 57 -32zM295 1167q3 41 18.5 55.5t55.5 14.5h1409q49 0 49 33q0 28 -62 28h-1429q-53 0 -53 -65q0 -7 2.5 -20
t5.5 -24.5t4 -21.5zM942 1860l102 106q37 35 37 53q0 29 -32 29q-15 0 -45 -33l-132 -131q-32 -32 -32 -45q0 -25 24 -49l135 -135l21 -17q6 -12 24 -12q33 0 33 29q0 19 -20 41l-115 119q-16 8 -16 24q0 1 16 21zM942 602l102 107q37 35 37 53q0 29 -32 29q-12 0 -45 -33
l-132 -131q-32 -35 -32 -45q0 -24 24 -50l135 -135l21 -16q6 -12 24 -12q33 0 33 28q0 21 -20 41l-115 119q-16 8 -16 25q0 4 16 20z" />
    <glyph glyph-name="eacute" unicode="&#xe9;" horiz-adv-x="1716" 
d="M520 991q0 -251 86 -430q71 -146 207 -237t293 -91q146 0 240.5 44t173.5 106.5t102 62.5q33 0 33 -28q0 -74 -123 -180q-267 -267 -635 -267q-331 0 -553 222q-229 228 -229 626q0 223 101 437.5t285 351.5t421 137q197 0 365 -107t266 -263t98 -285q0 -99 -82 -99
h-1049zM545 1110h483q97 0 147 25.5t50 97.5q0 114 -100 259.5t-277 145.5q-143 0 -236.5 -140.5t-103.5 -305.5q0 -82 37 -82zM1061 1622q225 -177 225 -434q0 -58 29 -58q37 0 37 66q0 128 -80 253t-211 173zM459 1507q-158 -124 -228.5 -313.5t-70.5 -386.5
q0 -242 106.5 -431.5t286.5 -277.5q117 -61 328 -61q-159 35 -266.5 83t-192.5 142q-122 136 -159.5 300.5t-37.5 281.5q0 207 67.5 363.5t166.5 299.5zM1245 2613l-270 -430q-20 -41 -58 -41h-135q-49 0 -49 53q0 7 2 19t2 18l94 394q14 61 82 61h308q45 0 45 -16
q0 -21 -21 -58zM868 2560l-69 -287q0 -2 -2 -9t-2 -11q0 -29 12 -29q41 0 41 33l74 299q0 2 2 12t2 12q0 13 -17 13q-34 0 -41 -33z" />
    <glyph glyph-name="ecircumflex" unicode="&#xea;" horiz-adv-x="1716" 
d="M520 991q0 -251 86 -430q71 -146 207 -237t293 -91q146 0 240.5 44t173.5 106.5t102 62.5q33 0 33 -28q0 -74 -123 -180q-267 -267 -635 -267q-331 0 -553 222q-229 228 -229 626q0 223 101 437.5t285 351.5t421 137q197 0 365 -107t266 -263t98 -285q0 -99 -82 -99
h-1049zM545 1110h483q97 0 147 25.5t50 97.5q0 114 -100 259.5t-277 145.5q-143 0 -236.5 -140.5t-103.5 -305.5q0 -82 37 -82zM1061 1622q225 -177 225 -434q0 -58 29 -58q37 0 37 66q0 128 -80 253t-211 173zM459 1507q-158 -124 -228.5 -313.5t-70.5 -386.5
q0 -242 106.5 -431.5t286.5 -277.5q117 -61 328 -61q-159 35 -266.5 83t-192.5 142q-122 136 -159.5 300.5t-37.5 281.5q0 207 67.5 363.5t166.5 299.5zM860 2429l-196 -250q-33 -45 -95 -45h-131q-45 0 -45 20q0 70 246 451q31 48 53 67t66 19h250q54 0 94 -57
q221 -392 221 -471q0 -25 -57 -25h-135q-33 0 -41 16zM1171 2261q0 7 -56.5 82t-94.5 123q-128 160 -160 160q-45 0 -233 -250q-20 -26 -51 -67t-31 -48q0 -20 12 -20q10 0 68.5 64.5t95.5 107.5q33 35 77 81t62 46q9 0 26 -15t41.5 -40.5t42.5 -46.5t29 -34
q34 -40 89 -99.5t67 -59.5q16 0 16 16z" />
    <glyph glyph-name="edieresis" unicode="&#xeb;" horiz-adv-x="1716" 
d="M520 991q0 -251 86 -430q71 -146 207 -237t293 -91q146 0 240.5 44t173.5 106.5t102 62.5q33 0 33 -28q0 -74 -123 -180q-267 -267 -635 -267q-331 0 -553 222q-229 228 -229 626q0 223 101 437.5t285 351.5t421 137q197 0 365 -107t266 -263t98 -285q0 -99 -82 -99
h-1049zM545 1110h483q97 0 147 25.5t50 97.5q0 114 -100 259.5t-277 145.5q-143 0 -236.5 -140.5t-103.5 -305.5q0 -82 37 -82zM1061 1622q225 -177 225 -434q0 -58 29 -58q37 0 37 66q0 128 -80 253t-211 173zM459 1507q-158 -124 -228.5 -313.5t-70.5 -386.5
q0 -242 106.5 -431.5t286.5 -277.5q117 -61 328 -61q-159 35 -266.5 83t-192.5 142q-122 136 -159.5 300.5t-37.5 281.5q0 207 67.5 363.5t166.5 299.5zM1290 2683l217 -209q29 -29 29 -49q0 -26 -21 -45l-217 -226q-28 -28 -49 -28q-17 0 -45 28l-217 213q-21 30 -21 54
q0 20 29 49l193 205q32 32 49 32q29 0 53 -24zM508 2683l217 -209q29 -29 29 -49q0 -24 -21 -45l-217 -226q-28 -28 -49 -28q-17 0 -45 28l-217 213q-21 27 -21 54q0 20 29 49l192 205q34 32 49 32q28 0 54 -24zM1118 2425l135 172q4 0 4 12t-12 12q-17 0 -33 -16l-143 -143
q-21 -34 -21 -41q0 -11 14 -27t15 -18l143 -140q5 -3 16.5 -13.5t20.5 -10.5q17 0 17 16q0 1 -21 33zM336 2425l135 172q4 0 4 12t-12 12q-17 0 -33 -16l-143 -143q-21 -30 -21 -41t14 -27t15 -18l143 -140q8 -6 13.5 -11.5t11.5 -9t12 -3.5q16 0 16 16q0 3 -20 33z" />
    <glyph glyph-name="egrave" unicode="&#xe8;" horiz-adv-x="1716" 
d="M520 991q0 -251 86 -430q71 -146 207 -237t293 -91q146 0 240.5 44t173.5 106.5t102 62.5q33 0 33 -28q0 -74 -123 -180q-267 -267 -635 -267q-331 0 -553 222q-229 228 -229 626q0 223 101 437.5t285 351.5t421 137q197 0 365 -107t266 -263t98 -285q0 -99 -82 -99
h-1049zM545 1110h483q97 0 147 25.5t50 97.5q0 114 -100 259.5t-277 145.5q-143 0 -236.5 -140.5t-103.5 -305.5q0 -82 37 -82zM1061 1622q225 -177 225 -434q0 -58 29 -58q37 0 37 66q0 128 -80 253t-211 173zM459 1507q-158 -124 -228.5 -313.5t-70.5 -386.5
q0 -242 106.5 -431.5t286.5 -277.5q117 -61 328 -61q-159 35 -266.5 83t-192.5 142q-122 136 -159.5 300.5t-37.5 281.5q0 207 67.5 363.5t166.5 299.5zM500 2687h307q66 0 78 -61l94 -394q0 -5 4 -20t4 -25q0 -30 -10 -37.5t-43 -7.5h-131q-32 0 -57 41l-275 430
q-16 34 -16 53q0 21 45 21zM574 2556l196 -315q6 -21 33 -21q25 0 25 16q0 11 -17 37l-184 295q-8 25 -29 25q-33 0 -33 -21q9 -9 9 -16z" />
    <glyph glyph-name="eth" horiz-adv-x="2052" 
d="M1053 2408l-316 -204q-5 -3 -14 -8t-14 -5q-54 0 -54 54q0 32 41 57l283 184q-126 119 -250 209l-78 58q-19 13 -35.5 24.5t-27 29.5t-10.5 52q0 21 21.5 33t47.5 12q162 0 545 -283l328 213q23 17 45 17q53 0 53 -53q0 -24 -21 -37l-24 -17l-295 -192q220 -189 356 -410
q303 -492 303 -1192q0 -458 -290 -733q-265 -246 -656 -246q-249 0 -449.5 102.5t-313.5 293.5t-113 440q0 239 115.5 459.5t323 355.5t470.5 135q118 0 234 -28.5t110 -28.5q25 0 25 57q0 144 -99 319.5t-241 331.5zM958 1634q-211 0 -335 -180q-103 -144 -103 -414
q0 -381 176 -667q75 -123 186.5 -205t239.5 -82q213 0 319.5 169.5t106.5 395.5q0 227 -77.5 457t-213 378t-299.5 148zM573 1565q-193 -112 -303 -314.5t-110 -431.5q0 -337 188 -549q93 -108 218.5 -172.5t252.5 -64.5h94q-324 79 -467 213q-108 106 -166.5 261.5
t-58.5 311.5q0 216 93 412t259 334zM1446 1786q0 349 -258 639q-192 210 -463 336q183 -127 326 -271.5t242 -319t153 -384.5zM1114 1651q226 -121 348 -379t135 -543q0 -293 -127 -516q181 160 181 512q0 329 -176 631q-147 244 -361 295z" />
    <glyph glyph-name="iacute" unicode="&#xed;" horiz-adv-x="1090" 
d="M758 1602v-1127q0 -122 28.5 -195t84 -109.5t145.5 -55.5q90 -22 90 -54q0 -61 -66 -61q16 0 -153 12.5t-305 12.5q-102 0 -226 -14.5t-135 -14.5q-65 0 -65 45q0 33 41 53q99 53 131 133.5t32 210.5v742q0 124 -39.5 177t-156.5 68q-78 11 -78 62q0 56 74 65
q169 22 284 69.5t197 102t92 54.5q33 0 33 -37q0 -6 -4 -56t-4 -83zM295 1454q74 -49 96.5 -121.5t22.5 -181.5v-86v-520q0 -137 -15.5 -229t-74.5 -177q151 71 151 279q0 21 -2 63t-2 60v532v107q0 114 -34.5 187.5t-141.5 86.5zM934 2613l-270 -430q-20 -41 -58 -41h-135
q-49 0 -49 53q0 7 2 19t2 18l94 394q14 61 82 61h308q45 0 45 -16q0 -21 -21 -58zM557 2560l-69 -287q0 -2 -2 -9t-2 -11q0 -29 12 -29q41 0 41 33l74 299q0 2 2 12t2 12q0 13 -17 13q-34 0 -41 -33z" />
    <glyph glyph-name="icircumflex" unicode="&#xee;" horiz-adv-x="1090" 
d="M758 1602v-1127q0 -122 28.5 -195t84 -109.5t145.5 -55.5q90 -22 90 -54q0 -61 -66 -61q16 0 -153 12.5t-305 12.5q-102 0 -226 -14.5t-135 -14.5q-65 0 -65 45q0 33 41 53q99 53 131 133.5t32 210.5v742q0 124 -39.5 177t-156.5 68q-78 11 -78 62q0 56 74 65
q169 22 284 69.5t197 102t92 54.5q33 0 33 -37q0 -6 -4 -56t-4 -83zM295 1454q74 -49 96.5 -121.5t22.5 -181.5v-86v-520q0 -137 -15.5 -229t-74.5 -177q151 71 151 279q0 21 -2 63t-2 60v532v107q0 114 -34.5 187.5t-141.5 86.5zM508 2429l-196 -250q-33 -45 -95 -45h-131
q-45 0 -45 20q0 70 246 451q31 48 53 67t66 19h250q54 0 94 -57q221 -392 221 -471q0 -25 -57 -25h-135q-33 0 -41 16zM819 2261q0 7 -56.5 82t-94.5 123q-128 160 -160 160q-45 0 -233 -250q-20 -26 -51 -67t-31 -48q0 -20 12 -20q10 0 68.5 64.5t95.5 107.5q33 35 77 81
t62 46q9 0 26 -15t41.5 -40.5t42.5 -46.5t29 -34q34 -40 89 -99.5t67 -59.5q16 0 16 16z" />
    <glyph glyph-name="idieresis" unicode="&#xef;" horiz-adv-x="1090" 
d="M758 1602v-1127q0 -122 28.5 -195t84 -109.5t145.5 -55.5q90 -22 90 -54q0 -61 -66 -61q16 0 -153 12.5t-305 12.5q-102 0 -226 -14.5t-135 -14.5q-65 0 -65 45q0 33 41 53q99 53 131 133.5t32 210.5v742q0 124 -39.5 177t-156.5 68q-78 11 -78 62q0 56 74 65
q169 22 284 69.5t197 102t92 54.5q33 0 33 -37q0 -6 -4 -56t-4 -83zM295 1454q74 -49 96.5 -121.5t22.5 -181.5v-86v-520q0 -137 -15.5 -229t-74.5 -177q151 71 151 279q0 21 -2 63t-2 60v532v107q0 114 -34.5 187.5t-141.5 86.5zM975 2683l217 -209q29 -29 29 -49
q0 -26 -21 -45l-217 -226q-28 -28 -49 -28q-17 0 -45 28l-217 213q-21 30 -21 54q0 20 29 49l193 205q32 32 49 32q29 0 53 -24zM193 2683l217 -209q29 -29 29 -49q0 -24 -21 -45l-217 -226q-28 -28 -49 -28q-17 0 -45 28l-217 213q-21 27 -21 54q0 20 29 49l192 205
q34 32 49 32q28 0 54 -24zM803 2425l135 172q4 0 4 12t-12 12q-17 0 -33 -16l-143 -143q-21 -34 -21 -41q0 -11 14 -27t15 -18l143 -140q5 -3 16.5 -13.5t20.5 -10.5q17 0 17 16q0 1 -21 33zM21 2425l135 172q4 0 4 12t-12 12q-17 0 -33 -16l-143 -143q-21 -30 -21 -41
t14 -27t15 -18l143 -140q8 -6 13.5 -11.5t11.5 -9t12 -3.5q16 0 16 16q0 3 -20 33z" />
    <glyph glyph-name="igrave" unicode="&#xec;" horiz-adv-x="1090" 
d="M758 1602v-1127q0 -122 28.5 -195t84 -109.5t145.5 -55.5q90 -22 90 -54q0 -61 -66 -61q16 0 -153 12.5t-305 12.5q-102 0 -226 -14.5t-135 -14.5q-65 0 -65 45q0 33 41 53q99 53 131 133.5t32 210.5v742q0 124 -39.5 177t-156.5 68q-78 11 -78 62q0 56 74 65
q169 22 284 69.5t197 102t92 54.5q33 0 33 -37q0 -6 -4 -56t-4 -83zM295 1454q74 -49 96.5 -121.5t22.5 -181.5v-86v-520q0 -137 -15.5 -229t-74.5 -177q151 71 151 279q0 21 -2 63t-2 60v532v107q0 114 -34.5 187.5t-141.5 86.5zM189 2687h307q66 0 78 -61l94 -394
q0 -5 4 -20t4 -25q0 -30 -10 -37.5t-43 -7.5h-131q-32 0 -57 41l-275 430q-16 34 -16 53q0 21 45 21zM263 2556l196 -315q6 -21 33 -21q25 0 25 16q0 11 -17 37l-184 295q-8 25 -29 25q-33 0 -33 -21q9 -9 9 -16z" />
    <glyph glyph-name="logicalnot" unicode="&#xac;" 
d="M1442 0v877h-1274v217h1778v-1094h-504z" />
    <glyph glyph-name="minus" 
d="M1888 1298v-127q0 -98 -78 -98h-1515q-39 0 -56.5 10t-17.5 47v115q0 103 74 103h1544q49 0 49 -50zM295 1167q3 41 18.5 55.5t55.5 14.5h1409q49 0 49 33q0 28 -62 28h-1429q-53 0 -53 -65q0 -7 2.5 -20t5.5 -24.5t4 -21.5z" />
    <glyph glyph-name="mu" unicode="&#xb5;" horiz-adv-x="2146" 
d="M840 -53q-178 0 -320 90q20 -286 45 -406q33 -135 33 -168q0 -105 -51.5 -177t-149.5 -72q-96 0 -146 71.5t-50 177.5q0 52 28 213q16 80 39 453t23 449v675q0 106 -30.5 166.5t-125.5 63.5q-94 9 -94 65q0 62 106 62q177 7 287 36.5t186.5 66t88.5 36.5q28 0 28 -33
q0 10 -18.5 -99t-18.5 -269v-656q0 -212 62 -319q45 -83 135 -131.5t193 -48.5q165 0 266 126q69 84 69 259v679q0 104 -29 157.5t-122 64.5q-61 6 -88 14.5t-27 50.5q0 32 46 47t89 15q126 5 235.5 33.5t192 63t80.5 34.5q33 0 33 -54q0 -7 -6 -96t-6 -117v-1069
q0 -135 44.5 -196.5t168.5 -61.5q102 0 102 -53q0 -42 -33.5 -56t-117.5 -14q-188 0 -376.5 -24.5t-160.5 -24.5q-29 0 -29 78l-4 135q0 41 -20 41q-16 0 -63 -52t-105 -100.5t-156.5 -87t-232.5 -38.5zM1417 1466q62 -38 62 -86v-1253q0 -82 32 -82q29 0 29 78v1094
q0 199 -123 249zM258 1507q90 -89 90 -229v-676q0 -140 -16.5 -406t-36.5 -528q-4 -39 -16.5 -108t-12.5 -117q0 -131 70 -164q-12 41 -12 164q0 34 10.5 104t13.5 101q62 781 62 950v680q0 185 -152 229z" />
    <glyph glyph-name="multiply" 
d="M868 1208l-487 488q-29 29 -29 57q0 33 41 66l94 90q26 16 37 16q13 0 29 -16l508 -508l487 487q25 25 58 25q24 0 65 -41l82 -82q25 -25 25 -41t-37 -53l-488 -488l488 -487q24 -24 24 -57q0 -27 -41 -66l-82 -82q-24 -24 -40 -24q-15 0 -54 36l-487 488l-488 -488
q-28 -28 -53 -28q-11 0 -34.5 13.5t-34.5 27.5l-91 94q-16 24 -16 41q0 8 37 45zM975 1167l577 -577q21 -21 33 -21q33 0 33 21q0 22 -29 49l-1097 1098q-29 27 -29 41q0 21 29 57q-86 -42 -86 -86q6 -19 20 -33l508 -508l-500 -499q-28 -30 -28 -45q0 -29 28 -29
q13 0 29 16zM1688 1778q-52 86 -86 86q-12 0 -33 -21l-422 -426q-10 -12 -16 -18t-9.5 -11t-3.5 -16q0 -24 33 -24q2 0 25 16l413 414q30 28 41 28q18 0 58 -28z" />
    <glyph glyph-name="ntilde" unicode="&#xf1;" horiz-adv-x="2253" 
d="M360 373v778q0 129 -36.5 196t-151.5 78q-82 12 -82 58q0 56 86 73q174 34 282.5 79.5t184 92t94.5 46.5q29 0 29 -50v-225q0 -69 25 -69q29 0 45 28q93 121 226 204t265 83q154 0 286.5 -76.5t205.5 -210.5q90 -157 90 -418v-610q0 -297 229 -328q60 -11 89.5 -22.5
t29.5 -54.5q0 -50 -62 -50q-1 0 -150.5 16.5t-279.5 16.5q-97 0 -237 -12t-139 -12q-70 0 -70 45q0 49 37 61q102 41 128.5 98t26.5 148v668q0 133 -46 245t-140.5 181t-230.5 69q-142 0 -241 -117.5t-99 -267.5v-668q0 -306 233 -331q131 -11 131 -62q0 -69 -61 -69
q-8 0 -78 10.5t-170.5 18t-247.5 7.5q-110 0 -229 -12t-111 -12q-65 0 -65 53q0 35 77 66q127 53 127 258zM295 1450q72 -51 93.5 -121t21.5 -178v-86v-520q0 -149 -13.5 -235.5t-72.5 -174.5q87 42 117 116t30 191v746q0 247 -176 262zM1270 1511q295 -101 295 -536v-643
q0 -135 -74 -226q135 45 135 213v689q0 243 -115 381q-67 85 -241 122zM852 2167h-148q-45 0 -45 37q0 171 67 321t224 150q63 0 108.5 -19.5t106 -58.5t99 -56.5t88.5 -17.5q67 0 77 111q9 28 29 28h156q53 0 53 -36q0 -157 -67.5 -310t-194.5 -153q-60 0 -109 21t-112 63
t-105 63t-92 21q-58 0 -77.5 -52.5t-20.5 -87.5q-4 -9 -8.5 -16.5t-28.5 -7.5zM1532 2548q-63 -176 -156 -176q-42 0 -81 18t-112 59.5t-119 61.5t-93 20q-80 0 -130.5 -58.5t-50.5 -129.5v-98q22 70 38.5 111.5t53.5 77.5t97 36q32 0 78 -22.5t115 -62t114.5 -59.5
t89.5 -20q86 0 121 75t35 167z" />
    <glyph glyph-name="oacute" unicode="&#xf3;" horiz-adv-x="2052" 
d="M1937 897q0 -194 -75 -371.5t-215 -308.5q-265 -246 -656 -246q-249 0 -449.5 102.5t-313.5 293.5t-113 440q0 241 115.5 458t323.5 348.5t470 131.5q232 0 442 -101t340.5 -294.5t130.5 -452.5zM954 1622q-207 0 -331 -180q-103 -144 -103 -402q0 -381 176 -667
q75 -123 186.5 -205t239.5 -82q213 0 319.5 169.5t106.5 395.5q0 240 -80.5 464.5t-218 365.5t-295.5 141zM1114 1638q151 -81 258 -228t162 -324.5t63 -356.5q0 -293 -127 -516q181 160 181 512q0 317 -176 618q-146 244 -361 295zM573 1552q-193 -111 -303 -308t-110 -425
q0 -337 188 -549q93 -108 218.5 -172.5t252.5 -64.5h94q-324 79 -467 213q-108 106 -166.5 261.5t-58.5 311.5q0 440 352 733zM1331 2613l-270 -430q-20 -41 -58 -41h-135q-49 0 -49 53q0 7 2 19t2 18l94 394q14 61 82 61h308q45 0 45 -16q0 -21 -21 -58zM954 2560l-69 -287
q0 -2 -2 -9t-2 -11q0 -29 12 -29q41 0 41 33l74 299q0 2 2 12t2 12q0 13 -17 13q-34 0 -41 -33z" />
    <glyph glyph-name="ocircumflex" unicode="&#xf4;" horiz-adv-x="2052" 
d="M1937 897q0 -194 -75 -371.5t-215 -308.5q-265 -246 -656 -246q-249 0 -449.5 102.5t-313.5 293.5t-113 440q0 241 115.5 458t323.5 348.5t470 131.5q232 0 442 -101t340.5 -294.5t130.5 -452.5zM954 1622q-207 0 -331 -180q-103 -144 -103 -402q0 -381 176 -667
q75 -123 186.5 -205t239.5 -82q213 0 319.5 169.5t106.5 395.5q0 240 -80.5 464.5t-218 365.5t-295.5 141zM1114 1638q151 -81 258 -228t162 -324.5t63 -356.5q0 -293 -127 -516q181 160 181 512q0 317 -176 618q-146 244 -361 295zM573 1552q-193 -111 -303 -308t-110 -425
q0 -337 188 -549q93 -108 218.5 -172.5t252.5 -64.5h94q-324 79 -467 213q-108 106 -166.5 261.5t-58.5 311.5q0 440 352 733zM1028 2429l-196 -250q-33 -45 -95 -45h-131q-45 0 -45 20q0 70 246 451q31 48 53 67t66 19h250q54 0 94 -57q221 -392 221 -471q0 -25 -57 -25
h-135q-33 0 -41 16zM1339 2261q0 7 -56.5 82t-94.5 123q-128 160 -160 160q-45 0 -233 -250q-20 -26 -51 -67t-31 -48q0 -20 12 -20q10 0 68.5 64.5t95.5 107.5q33 35 77 81t62 46q9 0 26 -15t41.5 -40.5t42.5 -46.5t29 -34q34 -40 89 -99.5t67 -59.5q16 0 16 16z" />
    <glyph glyph-name="odieresis" unicode="&#xf6;" horiz-adv-x="2052" 
d="M1937 897q0 -194 -75 -371.5t-215 -308.5q-265 -246 -656 -246q-249 0 -449.5 102.5t-313.5 293.5t-113 440q0 241 115.5 458t323.5 348.5t470 131.5q232 0 442 -101t340.5 -294.5t130.5 -452.5zM954 1622q-207 0 -331 -180q-103 -144 -103 -402q0 -381 176 -667
q75 -123 186.5 -205t239.5 -82q213 0 319.5 169.5t106.5 395.5q0 240 -80.5 464.5t-218 365.5t-295.5 141zM1114 1638q151 -81 258 -228t162 -324.5t63 -356.5q0 -293 -127 -516q181 160 181 512q0 317 -176 618q-146 244 -361 295zM573 1552q-193 -111 -303 -308t-110 -425
q0 -337 188 -549q93 -108 218.5 -172.5t252.5 -64.5h94q-324 79 -467 213q-108 106 -166.5 261.5t-58.5 311.5q0 440 352 733zM1458 2683l217 -209q29 -29 29 -49q0 -26 -21 -45l-217 -226q-28 -28 -49 -28q-17 0 -45 28l-217 213q-21 30 -21 54q0 20 29 49l193 205
q32 32 49 32q29 0 53 -24zM676 2683l217 -209q29 -29 29 -49q0 -24 -21 -45l-217 -226q-28 -28 -49 -28q-17 0 -45 28l-217 213q-21 27 -21 54q0 20 29 49l192 205q34 32 49 32q28 0 54 -24zM1286 2425l135 172q4 0 4 12t-12 12q-17 0 -33 -16l-143 -143q-21 -34 -21 -41
q0 -11 14 -27t15 -18l143 -140q5 -3 16.5 -13.5t20.5 -10.5q17 0 17 16q0 1 -21 33zM504 2425l135 172q4 0 4 12t-12 12q-17 0 -33 -16l-143 -143q-21 -30 -21 -41t14 -27t15 -18l143 -140q8 -6 13.5 -11.5t11.5 -9t12 -3.5q16 0 16 16q0 3 -20 33z" />
    <glyph glyph-name="ograve" unicode="&#xf2;" horiz-adv-x="2052" 
d="M1937 897q0 -194 -75 -371.5t-215 -308.5q-265 -246 -656 -246q-249 0 -449.5 102.5t-313.5 293.5t-113 440q0 241 115.5 458t323.5 348.5t470 131.5q232 0 442 -101t340.5 -294.5t130.5 -452.5zM954 1622q-207 0 -331 -180q-103 -144 -103 -402q0 -381 176 -667
q75 -123 186.5 -205t239.5 -82q213 0 319.5 169.5t106.5 395.5q0 240 -80.5 464.5t-218 365.5t-295.5 141zM1114 1638q151 -81 258 -228t162 -324.5t63 -356.5q0 -293 -127 -516q181 160 181 512q0 317 -176 618q-146 244 -361 295zM573 1552q-193 -111 -303 -308t-110 -425
q0 -337 188 -549q93 -108 218.5 -172.5t252.5 -64.5h94q-324 79 -467 213q-108 106 -166.5 261.5t-58.5 311.5q0 440 352 733zM668 2687h307q66 0 78 -61l94 -394q0 -5 4 -20t4 -25q0 -30 -10 -37.5t-43 -7.5h-131q-32 0 -57 41l-275 430q-16 34 -16 53q0 21 45 21z
M742 2556l196 -315q6 -21 33 -21q25 0 25 16q0 11 -17 37l-184 295q-8 25 -29 25q-33 0 -33 -21q9 -9 9 -16z" />
    <glyph glyph-name="onehalf" horiz-adv-x="2953" 
d="M860 2265v-913q0 -123 43.5 -178.5t157.5 -55.5q74 0 74 -57q0 -41 -66 -41q4 0 -96 6t-244 6q-101 0 -203 -8t-96 -8q-18 0 -41.5 11.5t-23.5 29.5q0 61 86 61q147 0 147 164v885q0 59 -29 95t-73 36q-35 0 -72 -14.5t-35 -14.5q-49 0 -49 45q0 53 123 86l69 13
q123 24 213 102l37 33q34 24 49 24q46 0 46 -53q0 -11 -8.5 -100.5t-8.5 -153.5zM2109 2503l-1048 -2409q-26 -60 -63.5 -83t-108.5 -23q-58 0 -58 24q0 4 2.5 11.5t2.5 13.5l1089 2482q29 66 90 66h53q54 0 54 -33q0 -7 -13 -49zM2056 266q23 -8 90.5 -20.5t180.5 -12.5
q155 0 249 50q32 17 54.5 38.5t45 49.5t39.5 41.5t38 13.5q12 0 24 -10t12 -23q0 -9 -12 -45l-127 -278q-7 -19 -27 -48.5t-47 -29.5h-168q-31 0 -205 8t-212 8q-31 0 -120 -6t-93 -6q-41 0 -41 45q0 12 28 49q127 131 303 377q139 185 221.5 336.5t82.5 302.5
q0 96 -66.5 156.5t-167.5 60.5q-159 0 -287 -135q-24 -25 -49 -25q-12 0 -26.5 13.5t-14.5 27.5q0 57 115 160q180 160 405 160q150 0 259.5 -92.5t109.5 -239.5q0 -158 -81.5 -289t-237.5 -313l-250 -291q-7 -10 -14 -19t-11 -14zM532 2343q73 -31 94 -69.5t21 -127.5v-880
q0 -101 -74 -168q80 34 106 77.5t26 131.5v815q0 115 -32 165t-141 56zM2007 1348q23 5 71 12.5t97 7.5q113 0 179.5 -73t66.5 -177q0 -149 -119 -397l-21 -41q88 84 144.5 198t56.5 236q0 130 -71 214.5t-199 84.5q-67 0 -123 -24.5t-82 -40.5zM2626 250q-124 -62 -304 -62
q-64 0 -174 18.5t-108 18.5q-37 0 -37 -20q0 -74 278 -74q120 0 200.5 23.5t144.5 95.5z" />
    </font>
</defs>
</svg>
